<?xml version="1.0" standalone="no"?>
<!DOCTYPE svg PUBLIC "-//W3C//DTD SVG 1.1//EN" "http://www.w3.org/Graphics/SVG/1.1/DTD/svg11.dtd" >
<svg xmlns="http://www.w3.org/2000/svg">
<metadata>
This is a custom SVG font generated by IcoMoon.
<iconset grid="16"></iconset>
</metadata>
<defs>
<font id="icomoon" horiz-adv-x="512" >
<font-face units-per-em="512" ascent="480" descent="-32" />
<missing-glyph horiz-adv-x="512" />
<glyph unicode="&#xe000;" d="M 426.671,480L 85.343,480 C 38.406,480,0,441.595,0,394.655l0-341.311 C0,6.375, 38.406-32, 85.343-32l 341.328,0 
	C 473.609-32, 512,6.375, 512,53.345L 512,394.655 C 512,441.595, 473.609,480, 426.671,480z M 426.671,416c 3.994,0, 7.773-1.167, 11.010-3.171
	L 256,262.627L 74.323,412.827C 77.562,414.832, 81.345,416, 85.343,416L 426.671,416 z M 85.343,32c-0.962,0-1.91,0.073-2.842,0.204
	l 112.813,156.483l-14.628,14.627L 64,86.629L 64,392.198 L 256,160L 448,392.197l0-305.568 L 331.314,203.314l-14.627-14.627l 112.814-156.484
	c-0.929-0.13-1.873-0.203-2.831-0.203L 85.343,32 z"  />
<glyph unicode="&#xe001;" d="M 426.671,480L 85.343,480 C 38.406,480,0,441.595,0,394.655l0-341.311 C0,6.375, 38.406-32, 85.343-32l 341.328,0 
	C 473.609-32, 512,6.375, 512,53.345L 512,394.655 C 512,441.595, 473.609,480, 426.671,480z M 91.314,36.687l-38.628,38.627l 128,128
	l 14.628-14.627L 91.314,36.687z M 76.686,380.686l 14.628,14.628L 256,262.627L 420.687,395.314l 14.627-14.628L 256,169.373L 76.686,380.686z
	 M 420.687,36.687l-104,152l 14.627,14.627l 128-128L 420.687,36.687z"  />
<glyph unicode="&#xe002;" d="M 256,480C 114.615,480,0,365.385,0,224s 114.615-256, 256-256s 256,114.615, 256,256S 397.385,480, 256,480z M 128,352l 256,0 
	c 4.569,0, 9.002-0.981, 13.072-2.831L 256,184.585L 114.928,349.17C 118.998,351.018, 123.431,352, 128,352z M 96,128L 96,320 
	c0,0.67, 0.028,1.336, 0.070,2l 93.832-109.471L 97.103,119.73C 96.381,122.398, 96,125.173, 96,128z M 384,96L 128,96 
	c-2.827,0-5.601,0.381-8.27,1.104l 91.059,91.059L 256,135.414l 45.212,52.747l 91.058-91.060C 389.6,96.381, 386.827,96, 384,96z
	 M 416,128c0-2.827-0.381-5.6-1.103-8.27l-92.8,92.799L 415.93,322c 0.042-0.664, 0.070-1.33, 0.070-2L 416,128 z"  />
<glyph unicode="&#xe003;" d="M 394.767,448c0,0-100.478,0-133.97,0c-60.061,0-116.585-45.503-116.585-98.211c0-53.863, 40.941-97.333, 102.044-97.333
	c 4.249,0, 8.378,0.085, 12.42,0.376c-3.964-7.593-6.8-16.144-6.8-25.021c0-14.969, 8.052-27.105, 18.234-37.012
	c-7.693,0-15.121-0.224-23.226-0.224c-74.391,0.001-131.65-47.38-131.65-96.511c0-48.389, 62.771-78.656, 137.167-78.656
	c 84.812,0, 131.653,48.122, 131.653,96.514c0,38.801-11.448,62.036-46.843,87.067c-12.108,8.571-35.266,29.418-35.266,41.672
	c0,14.36, 4.098,21.434, 25.714,38.323c 22.156,17.312, 37.837,41.651, 37.837,69.958c0,33.703-15.011,66.549-43.187,77.386l 42.478,0 
	L 394.767,448z M 347.974,120.271c 1.063-4.486, 1.642-9.104, 1.642-13.814c0-39.1-25.195-69.655-97.487-69.655
	c-51.421,0-88.558,32.552-88.558,71.65c0,38.321, 46.063,70.222, 97.482,69.666c 12-0.127, 23.184-2.058, 33.334-5.345
	C 322.301,153.359, 342.325,142.393, 347.974,120.271z M 265.643,266.112c-34.519,1.032-67.318,38.613-73.276,83.93
	c-5.958,45.333, 17.185,80.021, 51.694,78.995C 278.565,428, 311.379,391.63, 317.34,346.308
	C 323.293,300.978, 300.145,265.079, 265.643,266.112z"  />
<glyph unicode="&#xe004;" d="M 279.533,448c0,0-100.478,0-133.97,0C 85.503,448, 28.978,402.497, 28.978,349.789c0-53.863, 40.941-97.333, 102.044-97.333
		c 4.249,0, 8.378,0.085, 12.421,0.376c-3.965-7.593-6.801-16.144-6.801-25.021c0-14.969, 8.052-27.105, 18.234-37.012
		c-7.693,0-15.121-0.224-23.226-0.224C 57.259,190.576,0,143.196,0,94.065c0-48.389, 62.771-78.657, 137.167-78.657
		c 84.812,0, 131.653,48.122, 131.653,96.514c0,38.8-11.448,62.036-46.843,87.067c-12.108,8.572-35.265,29.418-35.265,41.672
		c0,14.36, 4.098,21.434, 25.714,38.323c 22.156,17.312, 37.836,41.651, 37.836,69.958c0,33.703-15.010,66.549-43.186,77.386l 42.477,0 
		L 279.533,448z M 232.74,120.271c 1.063-4.486, 1.642-9.103, 1.642-13.814c0-39.1-25.196-69.655-97.487-69.655
		c-51.421,0-88.558,32.552-88.558,71.65c0,38.321, 46.063,70.222, 97.482,69.666c 12-0.127, 23.184-2.058, 33.335-5.345
		C 207.067,153.36, 227.092,142.392, 232.74,120.271z M 150.409,266.112c-34.519,1.032-67.318,38.613-73.276,83.93
		c-5.958,45.333, 17.185,80.021, 51.694,78.995c 34.505-1.037, 67.319-37.407, 73.279-82.729
		C 208.059,300.978, 184.911,265.079, 150.409,266.112zM 416,352L 416,448L 384,448L 384,352L 288,352L 288,320L 384,320L 384,224L 416,224L 416,320L 512,320L 512,352 	z"  />
<glyph unicode="&#xe005;" d="M 426.756,480L 84.621,480 C 37.571,480,0,441.107,0,394.061l0-340.176 C0,5.674, 37.571-32, 84.621-32l 342.134,0 
	C 473.803-32, 512,5.674, 512,53.885L 512,394.061 C 512,441.107, 473.803,480, 426.756,480z M 352,464l0-80 l-80,0 L 272,464 L 352,464 z M 240,464l0-80 l-80,0 L 160,464 L 240,464 z
	 M 16,384L 16,394.061 C 16,432.625, 46.783,464, 84.621,464L 128,464 l0-80 L 16,384 z M 384,160l-96,0 l0-96 l-64,0 l0,96 l-96,0 l0,64 l 96,0 l0,96 l 64,0 l0-96 l 96,0 L 384,160 z M 496,384L 384,384 L 384,464 
	l 42.756,0 C 464.938,464, 496,432.625, 496,394.061L 496,384 z"  />
<glyph unicode="&#xe006;" d="M 0.403,45.168c-0.122,1.266-0.226,2.535-0.292,3.815C 0.176,47.703, 0.281,46.434, 0.403,45.168zM 117.954,197.426c 46.005-1.369, 76.867,46.349, 68.931,106.599c-7.947,60.24-51.698,108.584-97.704,109.961
		c-46.013,1.365-76.87-44.741-68.926-105C 28.196,248.752, 71.931,198.799, 117.954,197.426zM 512,352L 512,394.655 C 512,441.595, 473.609,480, 426.671,480L 85.343,480 C 39.205,480, 1.337,442.884, 0.061,397.037
		c 29.181,25.693, 69.662,47.158, 111.437,47.158c 44.652,0, 178.622,0, 178.622,0l-39.974-33.809l-56.634,0 
		c 37.565-14.402, 57.578-58.062, 57.578-102.861c0-37.624-20.905-69.977-50.444-92.984c-28.822-22.451-34.286-31.854-34.286-50.939
		c0-16.289, 30.873-44, 47.016-55.394c 47.191-33.269, 62.458-64.156, 62.458-115.728c0-8.214-1.021-16.415-3.033-24.48l 153.871,0 
		C 473.609-32, 512,6.375, 512,53.345L 512,319.999 l-96,0 L 416,224 l-32,0 l0,96 l-95.999,0 l0,32 L 384,352 L 384,448 l 32,0 l0-96 L 512,352 zM 92.943,97.032c 10.807,0, 20.711,0.295, 30.968,0.295c-13.573,13.167-24.313,29.3-24.313,49.19
		c0,11.804, 3.782,23.168, 9.067,33.26c-5.391-0.385-10.895-0.497-16.563-0.497c-37.178,0-68.753,12.038-92.102,31.927l0-33.621 
		l 0.003-100.865C 26.723,89.408, 58.447,97.032, 92.943,97.032zM 1.71,36.371c-0.556,2.729-0.983,5.503-1.271,8.317C 0.726,41.874, 1.154,39.1, 1.71,36.371zM 227.725,3.577c-7.529,29.403-34.227,43.982-71.444,69.784c-13.536,4.366-28.447,6.937-44.447,7.104
		c-44.809,0.482-86.554-17.471-110.108-44.186C 9.686-2.574, 44.243-32, 85.343-32l 143.222,0 c 0.908,5.564, 1.348,11.316, 1.348,17.216
		C 229.913-8.517, 229.146-2.388, 227.725,3.577z"  />
<glyph unicode="&#xe007;" d="M 218.503,70.919 C 218.503,33.385 195.308,3.723 129.624,1.331 C 91.132,23.224 58.879,54.807 36.17,92.764 C 48.015,122.012 85.016,144.287 127.328,143.821 C 139.339,143.695 150.533,141.764 160.7,138.471 C 188.654,119.038 211.2,106.895 216.862,84.747 C 217.919,80.265 218.503,75.644 218.503,70.919 ZM 256,480C 182.030,480, 115.402,448.615, 68.667,398.451c 18.467,10.226, 40.269,16.319, 63.451,16.319c 33.534,0, 128.219,0, 128.219,0
		L 231.685,384.7L 198.030,384.7 c 23.748-13.606, 36.376-41.624, 36.376-72.506c0-28.346-15.708-51.19-37.89-68.529
		c-21.64-16.901-25.746-23.983-25.746-38.367c0-12.271, 25.861-30.549, 37.75-39.468c 41.409-31.056, 49.789-50.592, 49.789-89.435
		c0-39.363-34.468-78.552-92.933-91.871C 193.55-26.145, 224.089-32, 256-32c 141.385,0, 256,114.615, 256,256S 397.385,480, 256,480z
		 M 384,288l0-64 l-32,0 l0,64 l-64,0 l0,32 l 64,0 L 352,384 l 32,0 l0-64 l 64,0 l0-32 L 384,288 zM 182.884,310.264 C 188.845,264.876 168.961,235.669 134.417,236.697 C 99.854,237.738 67.014,269.443 61.047,314.818 C 55.083,360.212 78.256,394.945 112.812,393.916 C 147.357,392.879 176.922,355.645 182.884,310.264 ZM 110.443,158.966 C 73.103,158.966 41.379,146.082 19.022,127.034 C 6.771,156.944 0,189.679 0,224 C 0,252.383 4.628,279.684 13.156,305.198 C 16.843,255.477 51.832,217.102 109.641,217.102 C 113.898,217.102 118.023,217.323 122.078,217.613 C 118.103,209.998 115.267,201.518 115.267,192.622 C 115.267,177.637 123.511,169.087 133.701,159.175 C 126,159.175 118.566,158.966 110.443,158.966 Z"  />
<glyph unicode="&#xe008;" d="M 229.665,150.084L 144.338,2.25L 426.665,2.25L 512,150.084 	zM 487.806,192L 341.339,445.75L 170.665,445.75L 317.143,192 	zM 146.418,403.743L0,150.084L 85.338,2.25L 231.754,255.912 	z"  />
<glyph unicode="&#xe009;" d="M 287.935-32L 192-32 L 192,224 l-64,0 l0,88.225 l 64,0.029l-0.104,51.976C 191.896,436.206, 211.413,480, 296.195,480l 70.588,0 l0-88.242 l-44.115,0 
	c-33.016,0-34.603-12.328-34.603-35.342l-0.131-44.162l 79.345,0 l-9.352-88.225L 288,224L 287.935-32z"  />
<glyph unicode="&#xe00a;" d="M 426.672,480L 85.342,480 C 38.406,480,0,441.593,0,394.656l0-341.313 C0,6.374, 38.406-32, 85.342-32l 341.33,0.001
	c 46.938,0, 85.328,38.373, 85.328,85.344L 512,394.656 C 512,441.593, 473.609,480, 426.672,480z M 435.296,224L 352,224 l0-224 l-96,0 L 256,224 l-46.263,0 l0,73.282 L 256,297.282 
	l0,47.593 C 256,409.546, 283.896,448, 359.935,448l 87.622,0 l0-79.285 l-71.565,0 c-21.241,0.035-23.876-11.076-23.876-31.756L 352,297.282l 96,0 
	L 435.296,224z"  />
<glyph unicode="&#xe00b;" d="M 464,480L 48,480 C 21.6,480,0,458.4,0,432l0-416 c0-26.4, 21.6-48, 48-48l 416,0 c 26.4,0, 48,21.6, 48,48L 512,432 C 512,458.4, 490.4,480, 464,480z M 472,72L 352,72 
	l0-16 l 120,0 l0-16 L 352,40 l0-16 l 120,0 l0-16 L 352,8 l0-8 l-96,0 l0,8 L 40,8 l0,16 l 216,0 l0,16 L 40,40 l0,16 l 216,0 l0,16 L 40,72 l0,16 l 216,0 L 256,224 l-46.263,0 l0,73.282 L 256,297.282 l0,47.593 
	C 256,409.546, 283.896,448, 359.935,448l 87.622,0 l0-79.285 l-71.565,0 c-21.241,0.035-23.876-11.076-23.876-31.756L 352,297.282l 96,0 L 435.296,224
	L 352,224 l0-136 l 120,0 L 472,72 z"  />
<glyph unicode="&#xe00c;" d="M 256,480 C 397.385,480 512,365.385 512,224 C 512,93.453 414.281-14.265 288-30.013 L 288,160 L 376,160 L 384,224 L 288,224 L 288,256 C 288,273.673 302.327,288 320,288 L 384,288 L 384,352 L 320,352 C 266.98,352 224,309.020 224,256 L 224,224 L 176,224 L 176,160 L 224,160 L 224,33.5 L 224-23.935 L 224-30.013 C 97.719-14.265 0,93.453 0,224 C 0,365.385 114.615,480 256,480 Z"  />
<glyph unicode="&#xe00d;" d="M 427,480L 85,480 C 38.25,480,0,441.75,0,395l0-342 c0-46.75, 38.25-85, 85-85l 342,0 c 46.75,0, 85,38.25, 85,85L 512,395 C 512,441.75, 473.75,480, 427,480z
	 M 163.9,256l 184.2,0 c 3.494-10.029, 5.4-20.795, 5.4-32c0-53.762-43.738-97.5-97.5-97.5c-53.762,0-97.5,43.738-97.5,97.5
	C 158.5,235.205, 160.406,245.971, 163.9,256z M 448,255.975L 448,128 l0-64 c0-17.6-14.4-32-32-32L 96,32 c-17.6,0-32,14.4-32,32l0,64 L 64,255.975 L 64,256 
	l 50.054,0 c-2.321-10.301-3.554-21.008-3.554-32c0-80.229, 65.271-145.5, 145.5-145.5c 80.229,0, 145.5,65.271, 145.5,145.5
	c0,10.992-1.232,21.699-3.554,32L 448,256 L 448,255.975 z M 448,368c0-8.8-7.2-16-16-16l-32,0 c-8.8,0-16,7.2-16,16L 384,400 c0,8.8, 7.2,16, 16,16l 32,0 
	c 8.8,0, 16-7.2, 16-16L 448,368 z"  />
<glyph unicode="&#xe00e;" d="M 512,382.791c-18.838-8.354-39.082-14.001-60.33-16.54c 21.686,13, 38.343,33.585, 46.186,58.115
	c-20.298-12.039-42.778-20.78-66.705-25.49c-19.16,20.415-46.461,33.17-76.673,33.17c-58.011,0-105.044-47.029-105.044-105.039
	c0-8.233, 0.929-16.25, 2.72-23.939c-87.3,4.382-164.701,46.2-216.509,109.753c-9.042-15.514-14.223-33.558-14.223-52.809
	c0-36.444, 18.544-68.596, 46.73-87.433c-17.219,0.546-33.416,5.271-47.577,13.139c-0.010-0.438-0.010-0.878-0.010-1.321
	c0-50.894, 36.209-93.348, 84.261-103c-8.813-2.4-18.094-3.686-27.674-3.686c-6.769,0-13.349,0.66-19.764,1.886
	c 13.368-41.73, 52.16-72.103, 98.126-72.948c-35.95-28.175-81.243-44.967-130.458-44.967c-8.479,0-16.84,0.497-25.058,1.47
	c 46.486-29.805, 101.701-47.197, 161.021-47.197c 193.211,0, 298.868,160.062, 298.868,298.872c0,4.554-0.103,9.084-0.305,13.59
	C 480.11,343.227, 497.918,361.727, 512,382.791z"  />
<glyph unicode="&#xe00f;" d="M 426.671,480L 85.343,480 C 38.406,480,0,441.595,0,394.655l0-341.311 C0,6.375, 38.406-32, 85.343-32l 341.328,0 
	C 473.609-32, 512,6.375, 512,53.345L 512,394.655 C 512,441.595, 473.609,480, 426.671,480z M 419.026,309.083
	c 0.164-3.671, 0.245-7.364, 0.245-11.074c0-113.107-84.608-243.534-239.329-243.534c-47.502,0-91.717,14.174-128.943,38.459
	c 6.58-0.794, 13.276-1.197, 20.065-1.197c 39.411,0, 75.679,13.685, 104.467,36.641c-36.808,0.69-67.872,25.438-78.577,59.441
	c 5.137-1, 10.406-1.537, 15.826-1.537c 7.672,0, 15.103,1.048, 22.16,3.004c-38.48,7.866-67.475,42.458-67.475,83.928
	c0,0.361,0,0.719, 0.008,1.076c 11.34-6.41, 24.312-10.26, 38.1-10.705c-22.571,15.349-37.421,41.546-37.421,71.244
	c0,15.685, 4.147,30.389, 11.389,43.029c 41.487-51.785, 103.468-85.86, 173.377-89.431c-1.435,6.266-2.179,12.798-2.179,19.507
	c0,47.269, 37.663,85.59, 84.115,85.59c 24.195,0, 46.059-10.393, 61.401-27.029c 19.16,3.838, 37.162,10.96, 53.416,20.771
	c-6.281-19.988-19.617-36.761-36.983-47.355c 17.013,2.069, 33.226,6.67, 48.31,13.477C 449.725,336.226, 435.463,321.15, 419.026,309.083
	z"  />
<glyph unicode="&#xe010;" d="M 256,480C 114.615,480,0,365.385,0,224s 114.615-256, 256-256s 256,114.615, 256,256S 397.385,480, 256,480z M 403.121,299.456
	c 0.146-3.254, 0.221-6.528, 0.221-9.819c0-100.311-76.354-215.982-215.979-215.982c-42.868,0-82.768,12.568-116.363,34.107
	c 5.938-0.704, 11.981-1.063, 18.108-1.063c 35.565,0, 68.295,12.138, 94.275,32.497c-33.217,0.61-61.25,22.561-70.912,52.716
	c 4.637-0.884, 9.392-1.361, 14.283-1.361c 6.923,0, 13.629,0.928, 19.999,2.662c-34.726,6.976-60.893,37.656-60.893,74.434
	c0,0.32,0,0.639, 0.008,0.955c 10.235-5.685, 21.939-9.1, 34.382-9.494c-20.37,13.611-33.77,36.846-33.77,63.184
	c0,13.911, 3.744,26.952, 10.278,38.162c 37.439-45.927, 93.374-76.146, 156.462-79.314c-1.294,5.559-1.965,11.351-1.965,17.302
	c0,41.92, 33.99,75.906, 75.909,75.906c 21.833,0, 41.562-9.218, 55.409-23.97c 17.29,3.404, 33.537,9.721, 48.206,18.42
	c-5.668-17.727-17.705-32.603-33.376-41.997c 15.355,1.834, 29.984,5.916, 43.597,11.952
	C 430.825,323.529, 417.955,310.16, 403.121,299.456z"  />
<glyph unicode="&#xe011;" d="M 68.147,104.535c-37.598,0-68.146-30.667-68.146-68.038c0-37.577, 30.55-67.901, 68.146-67.901
		c 37.733,0, 68.247,30.324, 68.247,67.901C 136.393,73.868, 105.882,104.535, 68.147,104.535zM 0.078,306.035l0-98.129 c 63.892,0, 123.979-24.986, 169.229-70.256c 45.192-45.159, 70.141-105.518, 70.141-169.65l 98.561,0 
		C 338.008,154.41, 186.368,306.035, 0.078,306.035zM 0.194,480l0-98.178 c 227.891,0, 413.378-185.667, 413.378-413.822L 512-32 C 512,250.235, 282.373,480, 0.194,480z"  />
<glyph unicode="&#xe012;" d="M 426.67,480L 85.343,480 C 38.405,480,0,441.594,0,394.656l0-341.314 C0,6.375, 38.406-32, 85.344-32L 426.67-32 
	c 46.938,0, 85.33,38.374, 85.33,85.342L 512,394.656 C 512,441.594, 473.608,480, 426.67,480z M 139.472,64.376C 115.487,64.376, 96,83.722, 96,107.69
	c0,23.842, 19.486,43.406, 43.472,43.406c 24.079,0, 43.53-19.564, 43.53-43.406C 183.001,83.722, 163.55,64.376, 139.472,64.376z
	 M 248.734,64.002c0,40.905-15.904,79.409-44.73,108.222c-28.857,28.875-67.188,44.813-107.952,44.813L 96.052,279.63 
	c 118.826,0, 215.563-96.721, 215.563-215.627L 248.734,64.002L 248.734,64.002z M 359.814,64.002
	c0,145.531-118.329,263.97-263.688,263.97L 96.126,390.596 c 180.001,0, 326.473-146.562, 326.473-326.596L 359.814,64.002L 359.814,64.002z"  />
<glyph unicode="&#xe013;" d="M 256,480C 114.615,480,0,365.385,0,224s 114.615-256, 256-256s 256,114.615, 256,256S 397.385,480, 256,480z M 160,96
	c-17.673,0-32,14.327-32,32s 14.327,32, 32,32s 32-14.327, 32-32S 177.673,96, 160,96z M 248,96c0,66.168-53.832,120-120,120l0,48 
	c 92.636,0, 168-75.364, 168-168L 248,96 z M 344,96c0,57.695-22.468,111.938-63.265,152.735C 239.938,289.532, 185.696,312, 128,312l0,48 
	c 70.517,0, 136.813-27.461, 186.677-77.324C 364.539,232.813, 392,166.517, 392,96L 344,96 z"  />
<glyph unicode="&#xe014;" d="M 416,416L 96,416 c-52.8,0-96-43.2-96-96l0-192 c0-52.8, 43.2-96, 96-96l 320,0 c 52.8,0, 96,43.2, 96,96L 512,320 C 512,372.8, 468.8,416, 416,416z
	 M 192,96L 192,352 l 160-128L 192,96z"  />
<glyph unicode="&#xe015;" d="M 416,416L 96,416 c-52.8,0-96-43.2-96-96l0-192 c0-52.8, 43.2-96, 96-96l 320,0 c 52.8,0, 96,43.2, 96,96L 512,320 C 512,372.8, 468.8,416, 416,416z
		 M 480,128c0-16.989-6.687-33.031-18.827-45.173C 449.031,70.687, 432.99,64, 416,64L 96,64 c-16.989,0-33.031,6.687-45.172,18.827
		C 38.687,94.969, 32,111.011, 32,128L 32,320 c0,16.989, 6.687,33.031, 18.828,45.172S 79.011,384, 96,384l 320,0 
		c 16.989,0, 33.031-6.687, 45.173-18.828C 473.314,353.031, 480,336.989, 480,320L 480,128 zM 192,96L 352,224L 192,352 	z"  />
<glyph unicode="&#xe016;" d="M0,325.815l 20.797-27.272c0,0, 42.885,33.804, 57.18,16.901c 14.294-16.901, 68.868-220.978, 87.085-258.623
	c 15.9-33.015, 59.759-76.66, 107.857-45.491c 48.068,31.17, 207.92,167.643, 236.533,328.808
	c 28.59,161.113-192.36,127.363-215.765-13.005c 58.495,35.118, 89.718-14.269, 59.785-70.186
	c-29.879-55.862-57.18-92.296-71.476-92.296c-14.269,0-25.245,37.384-41.594,102.723c-16.899,67.551-16.796,189.23-87.058,175.435
	C 87.085,429.803,0,325.815,0,325.815z"  />
<glyph unicode="&#xe017;" d="M 426.655,480L 85.345,480 C 38.406,480,0,441.592,0,394.654l0-341.31 C0,6.375, 38.406-32, 85.345-32l 341.31,0 
	C 473.594-32, 512,6.375, 512,53.345L 512,394.654 C 512,441.592, 473.594,480, 426.655,480z M 406.434,260.937
	c-16.979-95.648-111.854-176.648-140.39-195.155c-28.544-18.503-54.577,7.411-64.019,26.997
	c-10.808,22.354-43.205,143.47-51.684,153.51c-8.482,10.019-33.938-10.040-33.938-10.040l-12.346,16.188
	c0,0, 51.691,61.724, 91.020,69.439c 41.702,8.183, 41.64-64.033, 51.67-104.121c 9.7-38.782, 16.22-60.976, 24.688-60.976
	c 8.485,0, 24.691,21.631, 42.426,54.785c 17.768,33.188-0.769,62.505-35.486,41.646C 292.268,336.536, 423.406,356.57, 406.434,260.937z"  />
<glyph unicode="&#xe018;" d="M 256,480C 114.615,480,0,365.385,0,224s 114.615-256, 256-256s 256,114.615, 256,256S 397.385,480, 256,480z M 406.434,260.937
	c-16.979-95.648-111.854-176.648-140.39-195.155c-28.544-18.503-54.577,7.411-64.019,26.997
	c-10.808,22.354-43.205,143.47-51.684,153.51c-8.482,10.019-33.938-10.040-33.938-10.040l-12.346,16.188
	c0,0, 51.691,61.724, 91.020,69.439c 41.702,8.183, 41.64-64.033, 51.67-104.121c 9.7-38.782, 16.22-60.976, 24.688-60.976
	c 8.485,0, 24.691,21.631, 42.426,54.785c 17.768,33.188-0.769,62.505-35.486,41.646C 292.268,336.536, 423.406,356.57, 406.434,260.937z"  />
<glyph unicode="&#xe019;" d="M 426,480L 86,480 C 38.7,480,0,441.3,0,394l0-340 c0-47.3, 38.7-86, 86-86l 340,0 c 47.3,0, 86,38.7, 86,86L 512,394 C 512,441.3, 473.3,480, 426,480z
	 M 421.834,76.167c-56.666-18.667-167.333-55-188-60.167s-42-13.834-54,20.833c0,0-102,301.333-111.333,328S 50.077,407.576, 71.167,416
	c 48.688,19.447, 99.333,44.25, 108.667,16c 8.351-25.273, 97.333-304, 97.333-304s 104.666,36.834, 133.333,44.834s 38.501,13.334, 46-26
	S 478.5,94.834, 421.834,76.167z"  />
<glyph unicode="&#xe01a;" d="M0,208A112,112 1260 1 0 224,208A112,112 1260 1 0 0,208zM 288,208A112,112 1260 1 0 512,208A112,112 1260 1 0 288,208z"  />
<glyph unicode="&#xe01b;" d="M 400,272 C 364.71,272 336,243.29 336,208 C 336,172.71 364.71,144 400,144 C 435.29,144 464,172.71 464,208 C 464,243.29 435.29,272 400,272 Z M 400,320 L 400,320 C 461.855,320 512,269.856 512,208 C 512,146.145 461.855,96 400,96 C 338.145,96 288,146.145 288,208 C 288,269.856 338.145,320 400,320 ZM0,208A112,112 1260 1 0 224,208A112,112 1260 1 0 0,208z"  />
<glyph unicode="&#xe01c;" d="M 426.688,480L 85.344,480 C 38.406,480,0,441.594,0,394.659l0-341.313 C0,6.375, 38.406-32, 85.344-32l 341.341,0 
	C 473.622-32, 512,6.377, 512,53.348L 512,394.659 C 512,441.594, 473.622,480, 426.688,480z M 144,144c-44.183,0-80,35.817-80,80
	c0,44.183, 35.817,80, 80,80s 80-35.817, 80-80C 224,179.817, 188.183,144, 144,144z M 368,144c-44.184,0-80,35.817-80,80
	c0,44.183, 35.816,80, 80,80s 80-35.817, 80-80C 448,179.817, 412.184,144, 368,144z"  />
<glyph unicode="&#xe01d;" d="M 256,480C 114.615,480,0,364.602,0,222.25S 114.615-35.5, 256-35.5s 256,115.398, 256,257.75S 397.385,480, 256,480z M 144,144
	c-44.183,0-80,35.817-80,80c0,44.183, 35.817,80, 80,80s 80-35.817, 80-80C 224,179.817, 188.183,144, 144,144z M 368,144
	c-44.184,0-80,35.817-80,80c0,44.183, 35.816,80, 80,80s 80-35.817, 80-80C 448,179.817, 412.184,144, 368,144z"  />
<glyph unicode="&#xe01e;" d="M 352,282.87 L 169.772,465.098 C 196.717,474.736 225.742,480 256,480 C 289.952,480 322.352,473.375 352,461.372 L 352,282.87 ZM 384,128 L 384,445.743 C 460.517,401.479 512,318.754 512,224 C 512,190.048 505.375,157.648 493.372,128 L 384,128 ZM 160,96 L 477.743,96 C 433.479,19.483 350.754-32 256-32 C 222.048-32 189.648-25.375 160-13.372 L 160,96 ZM 213.13,368 L 7.489,162.359 C 2.607,182.104 0,202.746 0,224 C 0,320.691 53.613,404.851 132.726,448.404 L 213.13,368 ZM 128,229.13 L 128,2.257 C 80.702,29.618 42.982,71.681 21.063,122.193 L 128,229.13 Z"  />
<glyph unicode="&#xe01f;" d="M 426.688,480L 85.344,480 C 38.406,480,0,441.594,0,394.659l0-341.313 C0,6.375, 38.406-32, 85.344-32l 341.34,0 
	C 473.622-32, 512,6.377, 512,53.348L 512,394.659 C 512,441.594, 473.622,480, 426.688,480z M 256,448c 34.357,0, 66.902-7.745, 96-21.569L 352,282.87 
	L 195.221,439.649C 214.549,445.086, 234.934,448, 256,448z M 32,224c0,87.944, 50.688,164.037, 124.437,200.693L 213.13,368L 34.643,189.513
	C 32.906,200.755, 32,212.271, 32,224z M 128,40.169c-37.342,26.049-66.382,63.174-82.336,106.625L 128,229.13L 128,40.169 z M 256,0
	c-34.357,0-66.902,7.745-96,21.569L 160,96 l 279.831,0 C 399.353,37.974, 332.116,0, 256,0z M 458.431,128L 384,128 L 384,407.832 
	c 58.026-40.479, 96-107.715, 96-183.832C 480,189.643, 472.255,157.098, 458.431,128z"  />
<glyph unicode="&#xe020;" d="M 256.001-32C 114.841-32,0,82.841,0,224S 114.841,480, 256.001,480
	C 397.162,480, 512,365.159, 512,224S 397.162-32, 256.001-32z M 471.899,188.957c-7.481,2.36-67.682,20.316-136.205,9.349
	c 28.602-78.593, 40.239-142.604, 42.479-155.904C 427.23,75.57, 462.152,128.115, 471.899,188.957z M 341.416,22.381
	c-3.253,19.185-15.949,86.045-46.649,165.82c-0.48-0.164-0.961-0.32-1.44-0.486c-123.335-42.979-167.608-128.508-171.543-136.552
	c 37.075-28.912, 83.668-46.16, 134.218-46.16C 286.292,5.003, 315.161,11.198, 341.416,22.381z M 93.549,77.461
	c 4.954,8.48, 64.965,107.842, 177.738,144.297c 2.852,0.92, 5.724,1.785, 8.618,2.6c-5.49,12.422-11.47,24.857-17.728,37.108
	c-109.199-32.68-215.162-31.315-224.73-31.118c-0.066-2.221-0.111-4.445-0.111-6.683C 37.336,167.505, 58.626,116.228, 93.549,77.461z
	 M 41.956,268.452c 9.779-0.13, 99.868-0.521, 202.151,26.641c-36.23,64.406-75.306,118.555-81.071,126.46
	C 101.862,392.699, 56.135,336.305, 41.956,268.452z M 204.759,436.25c 6.044-8.092, 45.759-62.174, 81.59-128.007
	c 77.754,29.142, 110.67,73.385, 114.604,78.987c-38.615,34.259-89.391,55.1-144.951,55.1C 238.357,442.33, 221.202,440.214, 204.759,436.25z
	 M 425.261,361.944c-4.608-6.237-41.252-53.209-122.101-86.217c 5.089-10.416, 9.967-21.009, 14.508-31.672
	c 1.608-3.78, 3.177-7.542, 4.709-11.285c 72.759,9.149, 145.052-5.514, 152.263-7.039C 474.156,277.343, 455.715,324.736, 425.261,361.944z"  />
<glyph unicode="&#xe021;" d="M 269.376,222.038 C 170.7,190.14 118.19,103.199 113.855,95.777 C 83.297,129.698 64.668,174.565 64.668,223.706 C 64.668,225.664 64.707,227.611 64.766,229.554 C 73.138,229.383 165.856,228.188 261.405,256.783 C 266.881,246.063 272.113,235.182 276.917,224.313 C 274.385,223.6 271.871,222.843 269.376,222.038 ZM 382.833,366.827 C 379.392,361.925 350.59,323.212 282.555,297.713 C 251.203,355.316 216.452,402.638 211.164,409.719 C 225.552,413.187 240.563,415.039 256.001,415.039 C 304.616,415.039 349.045,396.804 382.833,366.827 ZM 245.594,286.206 C 156.096,262.44 77.269,262.782 68.711,262.895 C 81.118,322.266 121.129,371.611 174.657,396.858 C 179.701,389.941 213.893,342.561 245.594,286.206 ZM 288.66,192.25 C 289.080,192.396 289.5,192.532 289.921,192.676 C 316.783,122.873 327.892,64.37 330.739,47.583 C 307.766,37.799 282.506,32.378 256.001,32.378 C 211.769,32.378 171,47.47 138.56,72.768 C 142.003,79.807 180.742,154.645 288.66,192.25 ZM 426,480L 86,480 C 38.7,480,0,441.3,0,394l0-340 c0-47.3, 38.7-86, 86-86l 340,0 c 47.3,0, 86,38.7, 86,86L 512,394 C 512,441.3, 473.3,480, 426,480z M 256.001,0
		C 132.486,0, 32,100.485, 32,224C 32,347.514, 132.486,448, 256.001,448C 379.517,448, 480,347.514, 480,224
		C 480,100.485, 379.517,0, 256.001,0zM 325.732,201.518 C 385.69,211.114 438.365,195.402 444.912,193.338 C 436.382,140.101 405.826,94.124 362.902,65.102 C 360.941,76.74 350.758,132.749 325.732,201.518 ZM 297.266,269.262 C 368.008,298.144 400.070,339.244 404.103,344.702 C 430.749,312.144 446.886,270.676 447.309,225.516 C 441,226.85 377.744,239.68 314.080,231.674 C 312.739,234.95 311.367,238.241 309.959,241.549 C 305.987,250.879 301.718,260.148 297.266,269.262 Z"  />
<glyph unicode="&#xe022;" d="M 382.833,366.827 C 379.392,361.925 350.59,323.212 282.555,297.713 C 251.203,355.316 216.452,402.638 211.164,409.719 C 225.552,413.187 240.563,415.039 256.001,415.039 C 304.616,415.039 349.045,396.804 382.833,366.827 ZM 269.376,222.038 C 170.7,190.14 118.19,103.199 113.855,95.777 C 83.297,129.698 64.668,174.565 64.668,223.706 C 64.668,225.664 64.707,227.611 64.766,229.554 C 73.138,229.383 165.856,228.188 261.405,256.783 C 266.881,246.063 272.113,235.182 276.917,224.313 C 274.385,223.6 271.871,222.843 269.376,222.038 ZM 256,480C 114.615,480,0,365.385,0,224s 114.615-256, 256-256s 256,114.615, 256,256S 397.385,480, 256,480z M 256.001,0
		C 132.486,0, 32,100.485, 32,224C 32,347.514, 132.486,448, 256.001,448C 379.517,448, 480,347.514, 480,224
		C 480,100.485, 379.517,0, 256.001,0zM 309.959,241.549 C 305.986,250.879 301.718,260.148 297.265,269.263 C 368.007,298.144 400.070,339.245 404.103,344.702 C 430.749,312.144 446.886,270.676 447.309,225.516 C 441,226.85 377.744,239.68 314.080,231.674 C 312.739,234.95 311.367,238.241 309.959,241.549 ZM 245.594,286.206 C 156.096,262.44 77.269,262.782 68.711,262.895 C 81.118,322.266 121.129,371.611 174.657,396.858 C 179.701,389.941 213.893,342.561 245.594,286.206 ZM 288.66,192.25 C 289.080,192.396 289.5,192.532 289.921,192.676 C 316.783,122.873 327.892,64.37 330.739,47.583 C 307.766,37.799 282.506,32.378 256.001,32.378 C 211.769,32.378 171,47.47 138.56,72.768 C 142.003,79.807 180.742,154.645 288.66,192.25 ZM 325.732,201.518 C 385.69,211.114 438.365,195.402 444.912,193.338 C 436.382,140.101 405.826,94.124 362.902,65.102 C 360.941,76.74 350.758,132.749 325.732,201.518 Z"  />
<glyph unicode="&#xe027;" d="M 352,336A48,48 1260 1 0 448,336A48,48 1260 1 0 352,336zM 479.196,415.196c-43.739,43.738-114.653,43.738-158.393,0c-17.789-17.789-28.342-40.073-31.661-63.196l0,0 L 186.795,196.886
		c-13.753-0.705-27.388-4.208-39.983-10.508L 67.866,248.090c-18.275,14.287-44.671,11.051-58.956-7.224
		c-14.286-18.275-11.051-44.671, 7.224-58.956l 77.967-60.946c-8.48-33.391, 0.336-70.269, 26.465-96.397
		c 39.453-39.452, 103.416-39.452, 142.868,0c 24.233,24.233, 33.575,57.714, 28.038,89.083L 416,225.142l-0.001,0.001
		c 23.124,3.319, 45.408,13.872, 63.197,31.661C 522.935,300.542, 522.935,371.457, 479.196,415.196z M 192,28.651
		c-37.195,0-67.349,30.152-67.349,67.349c0,0.356, 0.021,0.707, 0.027,1.062l 33.456-26.152c 7.68-6.003, 16.791-8.912, 25.837-8.912
		c 12.481,0, 24.836,5.54, 33.119,16.136c 14.286,18.275, 11.051,44.671-7.224,58.956l-31.75,24.818c 4.481,0.939, 9.124,1.44, 13.884,1.44
		c 37.196,0, 67.349-30.152, 67.349-67.349S 229.196,28.651, 192,28.651z M 400,256c-44.183,0-80,35.817-80,80s 35.817,80, 80,80
		s 80-35.817, 80-80S 444.183,256, 400,256z"  />
<glyph unicode="&#xe028;" d="M 151.961,61.995 C 165.533,61.995 178.854,68.563 186.947,80.703 C 199.814,100.004 194.598,126.080 175.298,138.947 L 142.261,160.971 C 147.915,162.511 153.858,163.349 160,163.349 C 197.196,163.349 227.348,133.197 227.348,96 C 227.348,58.803 197.195,28.651 159.999,28.651 C 123.797,28.651 94.277,57.217 92.725,93.038 L 128.702,69.054 C 135.863,64.28 143.955,61.995 151.961,61.995 ZM 426.67,480 C 473.608,480 512,441.594 512,394.656 L 512,53.342 C 512,6.374 473.608-32 426.67-32 L 85.344-32 C 38.406-32 0,6.375 0,53.341 L 0,154.855 L 60.667,114.411 C 54.841,82.824 64.136,48.996 88.566,24.566 C 128.018-14.886 191.981-14.886 231.434,24.566 C 255.668,48.799 265.009,82.281 259.472,113.649 L 384.001,225.142 L 384,225.143 C 407.124,228.462 429.408,239.015 447.197,256.804 C 490.935,300.542 490.935,371.457 447.197,415.196 C 403.457,458.935 332.543,458.935 288.804,415.196 C 271.015,397.407 260.462,375.123 257.143,352 L 257.143,352 L 154.796,196.885 C 138.872,196.069 123.107,191.503 108.933,183.189 L 0,255.811 L 0,394.656 C 0,441.594 38.405,480 85.343,480 L 426.67,480 ZM 448,336c0,44.183-35.817,80-80,80s-80-35.817-80-80s 35.817-80, 80-80S 448,291.817, 448,336z M 320,336
		c0,26.51, 21.49,48, 48,48s 48-21.49, 48-48s-21.49-48-48-48S 320,309.49, 320,336z"  />
<glyph unicode="&#xe02c;" d="M 117.639,355.64c-25.396,0-47.242-8.403-65.542-25.208c-19.043-17.926-28.57-40.33-28.57-67.218
		c0-17.926, 5.188-34.731, 15.647-50.416c 9.337-14.563, 19.090-23.903, 31.889-28.012l0-1.121 c-12.799-5.224-18.483-18.295-18.483-39.209
		c0-16.062, 5.686-28.011, 18.483-35.854l0-1.121 c-35.327-11.573-51.496-33.047-51.496-64.415c0-27.267, 11.874-47.244, 35.033-59.939
		C 72.895-26.959, 96.389-32, 124.773-32c 69.085,0, 103.703,28.941, 103.703,86.832c0,36.223-26.661,58.441-80.064,66.658
		c-12.323,1.863-21.643,6.348-27.991,13.445c-4.854,4.854-7.271,9.709-7.271,14.563c0,13.816, 7.479,21.848, 22.41,24.088
		c 22.779,3.357, 41.364,13.912, 55.743,31.648c 14.375,17.74, 21.565,38.559, 21.565,62.458c0,7.469-2.259,15.498-5.244,24.086
		c 9.709,2.244, 16.525,4.297, 21.646,6.166L 229.27,355.64 c-22.527-8.964-43.495-13.442-61.421-13.442
		C 152.162,351.159, 135.937,355.64, 117.639,355.64z M 123.801,76.115c 31.372,0, 47.052-9.521, 47.052-28.57
		c0-20.168-14.377-30.246-43.132-30.246c-32.862,0-49.293,9.711-49.293,29.127C 78.427,66.221, 93.55,76.115, 123.801,76.115z
		 M 119.88,224c-23.527,0-35.293,12.882-35.293,38.654c0,27.631, 11.766,41.453, 35.293,41.453c 11.201,0, 19.979-4.298, 26.326-12.884
		c 5.229-7.845, 7.845-17.18, 7.845-28.011C 154.051,237.073, 142.658,224, 119.88,224zM 290.192,480c-10.828,0-20.070-4.107-27.727-12.324c-7.657-8.218-11.485-18.108-11.485-29.688
		c0-11.205, 3.829-20.91, 11.485-29.129c 7.654-8.217, 16.896-12.32, 27.727-12.32c 10.455,0, 19.514,4.104, 27.17,12.32
		c 7.656,8.219, 11.48,17.924, 11.48,29.129c0,11.58-3.824,21.472-11.48,29.688C 309.703,475.893, 300.647,480, 290.192,480zM 321.565,352.001l-63.303,0 c 0.748-7.168-0.32-18.021-0.32-35.57l0-174.216 c0-17.928, 1.068-32.387, 0.32-38.018l 63.303,0 
		c-0.75,8.188-2.697,22.334-2.697,41.379L 318.868,317.549 C 318.865,333.981, 320.815,344.833, 321.565,352.001zM 461.168,157.9c-16.436,0-24.541,12.514-24.541,37.533l0,103.32 l 24.932,0 c 4.48,0, 8.516,0.246, 13.559-0.123
		c 5.043-0.374, 7.076-0.125, 9.639-0.125l0,53.495 l-48.129,0 l0,23.808 c0,8.961, 1.408,17.151, 2.527,22.271l-64.979,0 
		c 1.121-5.12, 1.014-12.938, 1.014-23.395L 375.19,352 l-28.16,0 l0-53.494 c 7.682,1.12, 14.545,1.678, 19.398,1.678l 8.762-0.559l0-0.292 l0,0l0-101.101 
		c0-31.371, 3.979-54.336, 11.818-68.9c 10.461-19.42, 28.811-29.129, 56.068-29.129c 19.424,0, 36.559,3.732, 49.357,11.205l0,56.016 
		C 482.196,161.074, 472.742,157.9, 461.168,157.9z"  />
<glyph unicode="&#xe02d;" d="M 131.736,100.316c0-13.526, 11.447-20.291, 34.334-20.291c 20.032,0, 30.044,7.021, 30.044,21.067
		c0,13.269-10.923,19.898-32.772,19.898C 142.269,120.992, 131.736,114.102, 131.736,100.316zM 426.674,480L 85.344,480 C 38.406,480,0,441.595,0,394.656l0-341.313 C0,6.375, 38.406-32, 85.344-32l 341.33,0 
		C 473.608-32, 512,6.375, 512,53.344L 512,394.656 C 512,441.595, 473.609,480, 426.674,480z M 237.864,275.506
		c-3.642-1.302-8.844-2.729-15.606-4.293c 2.080-5.983, 3.123-11.576, 3.123-16.777c0-16.646-5.009-31.149-15.022-43.506
		c-10.015-12.354-22.956-19.703-38.823-22.043c-10.402-1.563-15.604-7.156-15.604-16.779c0-3.381, 1.689-6.765, 5.072-10.145
		c 4.422-4.943, 10.924-8.066, 19.509-9.367c 37.195-5.721, 55.793-21.197, 55.793-46.427c0-40.321-24.062-60.481-72.181-60.481
		c-19.771,0-36.028,3.513-48.772,10.535c-16.129,8.844-24.188,22.76-24.188,41.75c0,21.852, 12.096,36.808, 36.282,44.869l0,0.78 
		c-8.842,5.462-13.263,13.785-13.263,24.972c0,14.566, 4.162,23.672, 12.484,27.311l0,0.781 c-8.323,2.862-15.737,9.366-22.24,19.512
		c-7.282,10.926-10.925,22.63-10.925,35.115c0,18.729, 6.635,34.335, 19.896,46.82c 12.748,11.707, 27.964,17.558, 45.653,17.558
		c 12.747,0, 24.579-3.119, 35.505-9.361c 12.485,0, 26.921,3.12, 43.313,9.361L 237.864,275.506L 237.864,275.506z M 301.089,140.503
		l-44.093,0 c 0.521,5.201, 0.779,14.042, 0.779,26.532L 257.775,288.381 c0,12.227-0.261,20.682-0.779,25.359l 44.093,0 
		c-0.521-4.942-0.781-13.135-0.781-24.582l0-119.782 C 300.308,156.109, 300.569,146.484, 301.089,140.503z M 298.159,352.759
		c-5.332-5.722-11.641-8.581-18.923-8.581c-7.543,0-13.979,2.859-19.313,8.581c-5.333,5.726-8.001,12.486-8.001,20.289
		c0,8.067, 2.668,14.956, 8.001,20.683c 5.333,5.721, 11.77,8.584, 19.313,8.584c 7.282,0, 13.592-2.863, 18.923-8.584
		c 5.333-5.728, 7.999-12.615, 7.999-20.683C 306.158,365.245, 303.492,358.484, 298.159,352.759z M 420.845,145.576
		c-9.627-5.205-21.203-7.803-34.729-7.803c-18.985,0-32.124,6.76-39.405,20.287c-5.465,10.145-8.193,26.14-8.193,47.99l0,69.842 
		l 0.389,0 l0,0.781 l-5.853,0.391c-3.382,0-7.806-0.391-13.267-1.171L 319.787,313.74 l 19.117,0 l0,15.216 c0,7.285-0.389,13.14-1.17,17.56l 45.259,0 
		c-0.775-4.94-1.168-10.533-1.168-16.776l0-15.999 l 33.943,0 l0-37.846 c-1.299,0-3.705,0.129-7.218,0.389
		c-3.512,0.261-6.828,0.393-9.949,0.393l-16.777,0 l0-72.572 c0-17.432, 5.725-26.145, 17.167-26.145c 8.063,0, 15.348,2.209, 21.854,6.632
		L 420.845,145.576 L 420.845,145.576zM 160.608,279.797c-16.388,0-24.582-9.627-24.582-28.873c0-17.951, 8.194-26.924, 24.582-26.924
		c 15.868,0, 23.801,9.104, 23.801,27.313c0,7.545-1.82,14.047-5.461,19.511C 174.525,276.805, 168.411,279.797, 160.608,279.797z"  />
<glyph unicode="&#xe02e;" d="M 64,224.004c0-74.013, 44.161-137.984, 108.215-168.289L 80.626,300.107C 69.972,276.853, 64,251.116, 64,224.004zM 385.614,233.436c0,23.117-8.527,39.118-15.827,51.571c-9.729,15.41-18.86,28.447-18.86,43.858
			c0,17.187, 13.383,33.188, 32.243,33.188c 0.852,0, 1.66-0.102, 2.488-0.151C 351.5,392.387, 305.988,411, 256.004,411
			c-67.080,0-126.093-33.523-160.422-84.284c 4.505-0.141, 8.753-0.227, 12.356-0.227c 20.077,0, 51.17,2.376, 51.17,2.376
			c 10.345,0.591, 11.566-14.217, 1.229-15.411c0,0-10.405-1.184-21.976-1.775l 69.917-202.553l 42.022,122.728l-29.911,79.825
			c-10.344,0.592-20.139,1.775-20.139,1.775c-10.351,0.596-9.136,16.001, 1.219,15.411c0,0, 31.7-2.376, 50.567-2.376
			c 20.073,0, 51.175,2.376, 51.175,2.376c 10.351,0.591, 11.57-14.217, 1.223-15.411c0,0-10.417-1.186-21.974-1.775L 351.85,110.67
			l 19.156,62.316C 379.296,198.861, 385.614,217.436, 385.614,233.436zM 259.371,207.648l-57.613-163.029c 17.208-4.929, 35.397-7.619, 54.244-7.619c 22.358,0, 43.802,3.759, 63.759,10.6
			c-0.509,0.801-0.987,1.652-1.375,2.577L 259.371,207.648zM 424.481,313.714c 0.826-5.955, 1.294-12.343, 1.294-19.229c0-18.965-3.646-40.298-14.601-66.975l-58.643-165.136
			C 409.612,94.788, 448,155.018, 448,224.003C 448,256.518, 439.47,287.083, 424.481,313.714zM 256,480C 114.615,480,0,365.385,0,224s 114.615-256, 256-256s 256,114.615, 256,256S 397.385,480, 256,480z M 256,0
		C 132.288,0, 32,100.288, 32,224S 132.288,448, 256,448s 224-100.288, 224-224S 379.712,0, 256,0z"  />
<glyph unicode="&#xe02f;" d="M 259.371,207.648 L 318.386,50.177 C 318.775,49.252 319.252,48.402 319.761,47.6 C 299.805,40.759 278.359,37 256.002,37 C 237.155,37 218.966,39.69 201.758,44.619 L 259.371,207.648 ZM 448,224.003 C 448,155.018 409.612,94.788 352.53,62.374 L 411.173,227.51 C 422.129,254.187 425.775,275.52 425.775,294.485 C 425.775,301.371 425.306,307.759 424.481,313.714 C 439.47,287.083 448,256.518 448,224.003 ZM 64,224.004 C 64,251.116 69.972,276.853 80.626,300.107 L 172.215,55.715 C 108.161,86.020 64,149.991 64,224.004 ZM 95.582,326.716 C 129.911,377.477 188.924,411 256.004,411 C 305.988,411 351.5,392.387 385.658,361.902 C 384.83,361.951 384.023,362.053 383.17,362.053 C 364.31,362.053 350.927,346.052 350.927,328.865 C 350.927,313.454 360.058,300.417 369.787,285.007 C 377.087,272.554 385.614,256.553 385.614,233.436 C 385.614,217.435 379.296,198.861 371.006,172.986 L 351.85,110.67 L 282.46,311.679 C 294.018,312.268 304.434,313.454 304.434,313.454 C 314.781,314.648 313.563,329.456 303.211,328.865 C 303.211,328.865 272.109,326.489 252.036,326.489 C 233.169,326.489 201.469,328.865 201.469,328.865 C 191.114,329.455 189.899,314.050 200.25,313.454 C 200.25,313.454 210.045,312.271 220.389,311.679 L 250.3,231.854 L 208.278,109.126 L 138.361,311.679 C 149.932,312.27 160.337,313.454 160.337,313.454 C 170.674,314.648 169.453,329.456 159.108,328.865 C 159.108,328.865 128.015,326.489 107.938,326.489 C 104.335,326.489 100.087,326.575 95.582,326.716 ZM 426,480L 86,480 C 38.7,480,0,441.3,0,394l0-340 c0-47.3, 38.7-86, 86-86l 340,0 c 47.3,0, 86,38.7, 86,86L 512,394 C 512,441.3, 473.3,480, 426,480z M 480,224
		c0-123.712-100.288-224-224-224S 32,100.288, 32,224S 132.288,448, 256,448S 480,347.712, 480,224z"  />
<glyph unicode="&#xe030;" d="M 133.002,341.661c 16.416,16.422, 43.001,16.422, 59.402,0.016l 3.913-3.934l 50.552,50.578l-3.937,3.94
	c-28.812,28.85-69.257,38.939-106.21,30.261C 131.425,455.113, 103.178,479.984, 69.135,480C 31.31,480, 0.658,449.279, 0.65,411.421
	c0-32.668, 22.795-60, 53.331-66.915c-11.569-38.725-2.121-82.417, 28.423-112.992l 113.913-113.95l 50.498,50.607L 132.91,282.114
	C 116.569,298.475, 116.539,325.177, 133.002,341.661zM 511.356,411.421C 511.364,449.302, 480.697,480, 442.864,480c-34.617,0-63.239-25.722-67.841-59.119
	c-38.537,11.332-81.892,1.748-112.32-28.704l-113.92-113.95l 50.551-50.586l 113.883,113.928c 16.47,16.483, 42.994,16.453, 59.342,0.092
	c 16.4-16.415, 16.4-43.057-0.016-59.478l-3.897-3.918l 50.505-50.624l 3.929,3.964c 30.229,30.283, 39.839,73.378, 28.806,111.819
	C 485.461,347.841, 511.356,376.606, 511.356,411.421zM 453.133,104.468c 9.051,37.229-0.988,78.162-30.054,107.25L 309.334,325.714l-50.551-50.561l 113.76-114.006
	c 16.47-16.498, 16.432-43.048, 0.092-59.424c-16.401-16.407-43.002-16.407-59.418,0.015l-3.883,3.895l-50.497-50.623l 3.866-3.864
	c 30.758-30.797, 74.809-40.219, 113.684-28.244C 382.703-8.439, 410.354-32, 443.516-32C 481.318-32, 512-1.325, 512,36.563
	C 512,71.163, 486.41,99.791, 453.133,104.468zM 306.172,215.658L 192.404,101.662c-16.355-16.384-43.017-16.414-59.472,0.062c-16.409,16.452-16.416,43.049-0.022,59.485
	l 3.904,3.887l-50.543,50.562l-3.867-3.856c-29.38-29.401-39.28-70.917-29.725-108.491C 22.48,96.181,0,68.994,0,36.563
	C-0.008-1.31, 30.666-32, 68.491-32c 32.55,0.016, 59.794,22.709, 66.77,53.191c 37.351-9.276, 78.499,0.652, 107.672,29.878
	l 113.745,113.98L 306.172,215.658z"  />
<glyph unicode="&#xe031;" d="M 478.898,288l-28.103,0 l-0.6,0 c-17.583,0-32.994,14.871-34.195,32l0,0C 416.002,411.334, 342.371,480, 250.405,480l-83.912,0 
	C 74.587,480, 0.065,406,0,314.667l0-181.399 C0,41.941, 74.587-32, 166.492-32l 179.21,0 C 437.676-32, 512,41.941, 512,133.268L 512,250.459 
	C 512,268.71, 497.28,288, 478.898,288z M 160,352l 96,0 c 17.6,0, 32-14.4, 32-32s-14.4-32-32-32l-96,0 c-17.6,0-32,14.4-32,32S 142.4,352, 160,352
	z M 352,96L 160,96 c-17.6,0-32,14.4-32,32s 14.4,32, 32,32l 192,0 c 17.6,0, 32-14.4, 32-32S 369.6,96, 352,96z"  />
<glyph unicode="&#xe032;" d="M 426.674,480L 85.325,480 C 38.202,480,0,441.791,0,394.659l0-341.318 C0,6.208, 38.202-32, 85.325-32l 341.348,0 
	c 47.125,0, 85.324,38.208, 85.324,85.341L 512,394.659C 512,441.791, 473.798,480, 426.674,480z M 448,155.951
	C 448,87.456, 392.257,32, 323.278,32L 188.869,32 C 119.941,32, 64,87.456, 64,155.951L 64,292 c 0.048,68.5, 55.94,124, 124.869,124l 62.934,0 
	C 320.779,416, 376.002,364.5, 376,296c 0.901-12.847, 12.461-24, 25.646-24l 0.448,0 l 21.078,0 C 436.959,272, 448,257.533, 448,243.844L 448,155.951 zM 352,160c0-17.6-14.4-32-32-32L 192,128 c-17.6,0-32,14.4-32,32l0,0c0,17.6, 14.4,32, 32,32l 128,0 C 337.6,192, 352,177.6, 352,160
	L 352,160zM 288,288c0-17.6-14.4-32-32-32l-64,0 c-17.6,0-32,14.4-32,32l0,0c0,17.6, 14.4,32, 32,32l 64,0 C 273.6,320, 288,305.6, 288,288L 288,288
	z"  />
<glyph unicode="&#xe033;" d="M 288.016,256 L 288.015,138.908 C 288.015,109.199 287.63,92.080 290.78,83.658 C 293.905,75.281 301.739,66.585 310.275,61.557 C 321.617,54.763 334.546,51.369 349.129,51.369 C 375.056,51.369 390.368,54.793 416,71.639 L 416-5.333 L 416-5.333 C 394.15-15.609 375.067-21.63 357.338-25.794 C 339.588-29.915 320.408-31.997 299.806-31.997 C 276.392-31.997 262.578-29.054 244.601-23.169 C 226.622-17.235 211.271-8.766 198.591,2.101 C 185.866,13.062 177.080,24.705 172.167,37.017 C 167.254,49.335 164.809,67.224 164.809,90.639 L 164.809,270.189 L 96.096,270.189 L 96.096,342.692 C 116.2,349.213 138.678,358.586 152.986,370.768 C 167.363,382.993 178.869,397.621 187.539,414.74 C 196.235,431.813 202.213,453.596 205.475,479.998 L 288.017,479.998 L 288.016,352 L 416,352 L 416,256 L 288.016,256 Z"  />
<glyph unicode="&#xe034;" d="M 426.69,480L 85.344,480 C 38.405,480, 0.001,441.593, 0.001,394.657l0-341.313 C 0.001,6.375, 38.405-32, 85.344-32L 426.69-32 
	C 473.625-32, 512,6.375, 512,53.344L 512,394.658 C 511.996,441.593, 473.621,480, 426.69,480z M 365.858,67.656
	c-15.076-7.094-28.764-12.094-41-14.969c-12.248-2.845-25.48-4.279-39.701-4.279c-16.156,0-25.688,2.029-38.094,6.094
	c-12.404,4.094-23,9.936-31.75,17.436c-8.779,7.564-14.843,15.599-18.233,24.097c-3.392,8.502-5.078,20.846-5.078,37.002L 192.002,256.938 
	l-47.998,0 l0,50.033 c 13.872,4.5, 29.968,10.967, 39.842,19.375c 9.92,8.436, 17.859,18.529, 23.842,30.342
	c 6.002,11.783, 10.125,26.813, 12.376,45.033l 50.25,0 L 270.314,320 L 352,320 l0-63.063 l-81.689,0 l0-90.594 c0-20.5-0.264-32.313, 1.908-38.125
	c 2.156-5.78, 7.563-11.78, 13.451-15.25c 7.828-4.688, 16.752-7.030, 26.813-7.030c 17.893,0, 35.689,5.813, 53.375,17.438L 365.858,67.656 
	L 365.858,67.656z"  />
<glyph unicode="&#xe035;" d="M 424,160l-7.429,208.010C 416.257,376.805, 423.2,384, 432,384l 64,0 c 8.8,0, 14.734-7.088, 13.188-15.751L 472,160M 480,92c0-15.4-12.6-28-28-28l-8,0 c-15.4,0-28,12.6-28,28l0,8 c0,15.4, 12.6,28, 28,28l 8,0 c 15.4,0, 28-12.6, 28-28L 480,92 zM 192,384C 85.961,384,0,312.366,0,224c0-88.365, 85.961-160, 192-160c 106.039,0, 192,71.635, 192,160
	C 384,312.366, 298.039,384, 192,384z M 320,256l-37.131,0 L 224,197.13L 224,160 l 48,0 l0-32 L 144,128 l0,32 l 48,0 l0,37.13 L 101.13,288L 80.099,288 l0,32 l 95.803,0 l0-32 L 154.87,288 
	L 208,234.87l 16,16L 224,288 l 96,0 L 320,256 z"  />
<glyph unicode="&#xe036;" d="M 283.828,111.542c-40.972-19.059-79.079-18.858-104.67-17.010c-30.526,2.205-55.079,10.562-65.871,17.866
		c-6.65,4.503-15.692,2.761-20.195-3.891c-4.502-6.651-2.76-15.693, 3.891-20.195c 17.349-11.743, 48.034-20.477, 80.081-22.79
		c 5.433-0.392, 11.399-0.639, 17.823-0.639c 27.891,0, 63.313,2.658, 101.21,20.285c 7.282,3.389, 10.439,12.037, 7.052,19.32
		C 299.761,111.771, 291.111,114.924, 283.828,111.542zM 445.474,133.092c 1.393,126.344, 14.381,365.103-227.485,345.806C-20.811,459.677, 42.507,207.414, 38.948,122.923
		C 35.794,78.23, 20.959,23.599,0-32l 64.55,0 c 6.633,23.561, 11.512,46.86, 13.616,69.075c 3.891-2.714, 8.054-5.337, 12.497-7.85
		c 7.229-4.259, 13.442-9.922, 20.020-15.917c 15.372-14.009, 32.795-29.887, 66.856-31.876c 2.286-0.131, 4.587-0.197, 6.838-0.197
		c 34.448,0, 58.007,15.077, 76.939,27.191c 9.070,5.806, 16.909,10.82, 24.282,13.226c 20.955,6.56, 39.266,17.148, 52.952,30.626
		c 2.138,2.104, 4.121,4.269, 5.981,6.474c 7.623-27.939, 18.059-59.379, 29.644-90.752L 512-32 
		C 478.913,19.112, 444.782,69.187, 445.474,133.092z M 62.055,201.824c0,0.008,0,0.015-0.001,0.023
		c-2.373,41.231, 17.355,75.916, 44.063,77.468c 26.706,1.553, 50.28-30.614, 52.652-71.846c0-0.007, 0.002-0.015, 0.002-0.022
		c 0.128-2.223, 0.184-4.423, 0.185-6.603c-8.462-2.128-16.096-5.218-22.936-8.815c-0.026,0.306-0.046,0.608-0.076,0.915
		c0,0.004,0,0.009,0,0.013c-2.285,23.405-14.786,41.080-27.926,39.479c-13.14-1.602-21.94-21.875-19.656-45.279
		c0-0.005, 0.002-0.009, 0.002-0.013c 0.996-10.204, 3.934-19.318, 8.021-26.222c-1.017-0.802-3.892-2.906-7.203-5.328
		c-2.485-1.817-5.51-4.029-9.157-6.715C 70.084,161.926, 63.272,180.669, 62.055,201.824z M 332.63,99.911
		c-0.95-21.793-29.454-42.296-55.791-50.522l-0.148-0.048c-10.95-3.551-20.714-9.8-31.052-16.415
		c-17.366-11.112-35.323-22.604-61.261-22.604c-1.702,0-3.447,0.052-5.163,0.148c-23.758,1.389-34.871,11.516-48.94,24.338
		c-7.421,6.763-15.095,13.757-24.988,19.562l-0.212,0.122c-21.353,12.052-34.606,27.041-35.454,40.097
		c-0.421,6.49, 2.469,12.109, 8.591,16.7c 13.318,9.986, 22.239,16.511, 28.142,20.829c 6.555,4.794, 8.534,6.24, 10,7.632
		c 1.048,0.993, 2.182,2.094, 3.402,3.281c 12.223,11.887, 32.68,31.781, 64.075,31.781c 19.202,0, 40.449-7.4, 63.085-21.951
		c 10.662-6.939, 19.941-10.143, 31.69-14.2c 8.078-2.789, 17.234-5.951, 29.496-11.202l 0.198-0.082
		C 319.74,122.675, 333.248,114.095, 332.63,99.911z M 326.323,151.097c-2.2,1.107-4.487,2.16-6.872,3.143
		c-11.053,4.728-19.916,7.937-27.267,10.499c 4.058,7.947, 6.58,17.86, 6.812,28.621c0,0.005,0,0.011,0,0.015
		c 0.563,26.187-12.644,47.448-29.498,47.488c-16.855,0.039-30.975-21.157-31.538-47.343c0-0.005,0-0.009,0-0.014
		c-0.019-0.857-0.021-1.708-0.010-2.555c-10.381,4.776-20.59,8.245-30.583,10.38c-0.046,0.984-0.102,1.966-0.122,2.96
		c0,0.008,0,0.018,0,0.025c-0.969,47.706, 28.301,87.195, 65.377,88.201c 37.075,1.007, 67.914-36.85, 68.886-84.555
		c0-0.009,0-0.019,0-0.026C 341.945,186.363, 336.178,166.503, 326.323,151.097z"  />
<glyph unicode="&#xe037;" d="M 395.749,207.954c-0.647,64.841, 52.879,95.938, 55.271,97.483c-30.076,44.010-76.925,50.039-93.621,50.736
		c-39.871,4.037-77.798-23.474-98.033-23.474c-20.184,0-51.409,22.877-84.476,22.276c-43.458-0.646-83.529-25.269-105.906-64.19
		c-45.152-78.349-11.563-194.42, 32.445-257.963c 21.504-31.102, 47.146-66.038, 80.813-64.79c 32.421,1.294, 44.681,20.979, 83.878,20.979
		c 39.197,0, 50.214-20.979, 84.525-20.335c 34.887,0.648, 56.991,31.699, 78.346,62.898c 24.695,36.084, 34.863,71.019, 35.462,72.813
		C 463.679,104.74, 396.423,130.505, 395.749,207.954zM 331.281,398.239C 349.15,419.918, 361.211,449.995, 357.921,480c-25.739-1.048-56.939-17.145-75.405-38.775
		c-16.571-19.188-31.074-49.813-27.187-79.218C 284.062,359.765, 313.393,376.609, 331.281,398.239z"  />
<glyph unicode="&#xe038;" d="M 256.5,96c-66.156,0-130.837,9.686-193.050,28.849l 10.124,30.371C 132.526,137.141, 193.812,128, 256.5,128
		c 8.172,0, 16.319,0.164, 24.441,0.474C 283.054,167.254, 288,192, 288,192s-32,0-96,0c0,87.505, 29.909,165.027, 62.465,223.5L0,415.5 l0-383 
		l 283.088,0 c-2.336,22.842-3.152,44.43-3.077,63.92C 272.195,96.146, 264.358,96, 256.5,96z M 96,352l 32,0 l0-64 L 96,288 L 96,352 zM 512,415.5L 298.435,415.5 c-0.974-1.598-1.947-3.207-2.92-4.843c-19.208-32.286-34.468-65.379-45.358-98.36
		c-9.103-27.566-15.151-55.116-18.086-82.297l 102.429,0 l-9.229-45.417c-0.157-0.808-4.085-21.422-6.1-53.471
		c 40.932,4.063, 81.111,12.103, 120.257,24.107l 10.124-30.371c-42.783-13.178-86.732-21.874-131.526-26.021
		c-0.018-2.188-0.028-4.395-0.021-6.64c 0.062-20.315, 1.173-40.285, 3.301-59.688L 512,32.499 L 512,415.5 z M 416,288l-32,0 l0,64 l 32,0 L 416,288 zM 293.632-32l 39.084,0 c-2.73,10.907-5.094,22.096-7.069,33.543c-1.747,10.126-3.191,20.46-4.343,30.957l-38.216,0 
		C 285.204,11.811, 288.563-9.901, 293.632-32zM 344.224,480l-48.198,0 c-12.875-17.435-27.466-39.185-41.56-64.5l 43.969,0 C 315.272,443.156, 332.017,465.201, 344.224,480z"  />
<glyph unicode="&#xe039;" d="M 432,320c-17.6,0-32-14.4-32-32l0-128 c0-17.6, 14.4-32, 32-32s 32,14.4, 32,32L 464,288 C 464,305.6, 449.6,320, 432,320zM 48,320c-17.6,0-32-14.4-32-32l0-128 c0-17.6, 14.4-32, 32-32s 32,14.4, 32,32L 80,288 C 80,305.6, 65.599,320, 48,320zM 96,112c0-26.51, 21.49-48, 48-48l 16,0 l0-64 c0-17.6, 14.4-32, 32-32s 32,14.4, 32,32l0,64 l 32,0 l0-64 c0-17.6, 14.401-32, 32-32s 32,14.4, 32,32
		l0,64 l 16,0 c 26.51,0, 48,21.49, 48,48L 384,288 L 96,288 L 96,112 zM 299.299,435.253l 20.252,38.903c 1.016,1.951, 0.25,4.379-1.701,5.395s-4.379,0.25-5.395-1.701l-20.559-39.493
		C 275.797,444.581, 258.299,448, 240,448c-18.298,0-35.796-3.419-51.898-9.643L 167.544,477.849c-1.016,1.951-3.443,2.717-5.395,1.701
		s-2.717-3.443-1.701-5.395l 20.25-38.904c-45.315-20.509-78.12-63.792-83.81-115.252l 286.22,0 
		C 377.42,371.461, 344.615,414.743, 299.299,435.253z M 176,344.8c-12.813,0-23.2,10.387-23.2,23.2c0,12.813, 10.387,23.2, 23.2,23.2
		s 23.2-10.387, 23.2-23.2C 199.199,355.187, 188.813,344.8, 176,344.8z M 304,344.8c-12.813,0-23.201,10.387-23.201,23.2
		c0,12.813, 10.389,23.2, 23.201,23.2s 23.199-10.387, 23.199-23.2C 327.199,355.187, 316.813,344.8, 304,344.8z"  />
<glyph unicode="&#xe03a;" d="M 206.115,224.043c-23.854,12.259-47.043,18.479-68.94,18.479c-2.978,0-5.976-0.090-8.974-0.354
		c-27.94-2.312-53.461-9.684-69.875-15.414c-4.354-1.599-8.817-3.288-13.415-5.153L0,65.904
		c 30.851,11.416, 58.146,16.969, 83.135,16.969c 40.423,0, 69.764-15.104, 93.996-30.652c 11.481,38.959, 39.022,133.045, 47.241,161.162
		C 218.397,217.025, 212.334,220.668, 206.115,224.043zM 264.174,184.465l-45.223-157.074c 13.416-7.686, 58.549-32.025, 93.106-32.025c 27.896,0, 59.126,7.148, 95.417,21.896
		l 43.178,150.988c-29.316-9.461-57.438-14.26-83.732-14.26C 318.945,153.99, 285.363,169.539, 264.174,184.465zM 146.411,295.605c 38.559-0.399, 67.076-15.104, 90.708-30.251l 46.376,158.672c-9.773,5.598-35.403,19.547-53.929,24.3
		c-12.193,2.842-25.010,4.308-38.602,4.308c-25.898-0.488-54.194-6.973-86.444-19.9l-44.22-155.298
		c 32.404,12.218, 60.322,18.17, 86.043,18.17C 146.366,295.605, 146.411,295.605, 146.411,295.605zM 512,380.938c-29.407-11.416-58.104-17.233-85.514-17.233c-45.843,0-79.646,15.901-101.547,31.183L 278.964,235.77
		c 30.873-19.854, 64.145-29.939, 99.061-29.939c 28.474,0, 57.97,6.84, 87.731,20.344l-0.091,1.111l 1.867,0.443L 512,380.938z"  />
<glyph unicode="&#xe03b;" d="M 0.175,224 L 0,380.037 L 192,406.109 L 192,224 ZM 224,410.759 L 479.936,448 L 479.936,224 L 224,224 ZM 479.999,192 L 479.936-32 L 224,4.008 L 224,192 ZM 192,8.082 L 0.156,34.379 L 0.146,192 L 192,192 Z"  />
<glyph unicode="&#xe03c;" d="M 445.98,222.898c-9.043,0-17.674-1.76-25.532-4.928C 415.195,275.149, 365.303,320, 304.448,320
		c-14.893,0-29.341-2.815-42.159-7.582c-4.98-1.851-6.289-3.76-6.289-7.458l0-201.357 c0-3.883, 3.12-7.117, 7.062-7.498
		C 263.23,96.088, 444.83,96, 446.007,96C 482.459,96, 512,124.408, 512,159.447S 482.433,222.898, 445.98,222.898zM 200,96L 216,96L 224,208.11L 216,320L 200,320L 192,208.11 	zM 152,96L 136,96L 128,177.375L 136,256L 152,256L 160,176 	zM 72,96L 88,96L 96,160L 88,224L 72,224L 64,160 	zM 8,128L 24,128L 32,160L 24,192L 8,192L0,160 	z"  />
<glyph unicode="&#xe03d;" d="M 426.686,480L 85.344,480 C 38.407,480, 0.001,441.597, 0.001,394.66l0-234.658 L 8,192l 16,0 l 8-32l-8-32L 8,128 l-8,31.998l0-106.652 
	C 0.001,6.377, 38.407-32, 85.344-32l 341.342,0 C 473.625-32, 512,6.377, 512,53.346L 512,159.447 C 512,124.408, 482.459,96, 446.007,96
	c-1.177,0-182.777,0.088-182.945,0.105c-3.941,0.381-7.062,3.615-7.062,7.498L 256,304.96 c0,3.697, 1.309,5.606, 6.289,7.458
	c 12.818,4.767, 27.267,7.582, 42.159,7.582c 60.854,0, 110.746-44.851, 115.999-102.029c 7.858,3.168, 16.489,4.928, 25.532,4.928
	c 36.453,0, 66.021-28.412, 66.021-63.451L 512,394.659 C 512,441.597, 473.621,480, 426.686,480z M 88,96L 72,96 l-8,64l 8,64l 16,0 l 8-64L 88,96z M 152,96l-16,0 
	l-8,81.375L 136,256l 16,0 l 8-80L 152,96z M 216,96l-16,0 l-8,112.11L 200,320l 16,0 l 8-111.89L 216,96z"  />
<glyph unicode="&#xe03e;" d="M 487.655,191.031c 1.406,10.4, 2.215,20.973, 2.215,31.736c0,129.155-105.271,233.872-235.103,233.872
	c-12.904,0-25.555-1.060-37.866-3.080c-22.072,14.384-48.342,22.767-76.612,22.767C 62.766,476.326,0,413.518,0,336.020
	c0-28.198, 8.299-54.394, 22.59-76.389c-1.925-12.017-2.909-24.323-2.909-36.859c0-129.176, 105.217-233.882, 235.085-233.882
	c 14.657,0, 28.927,1.427, 42.796,3.933c 21.55-13.369, 46.934-21.148, 74.146-21.148C 449.21-28.326, 512,34.498, 512,111.988
	C 511.997,141.281, 503.040,168.516, 487.655,191.031z M 276.74,50.404c-74.705-3.892-109.664,12.637-141.689,42.691
	c-35.765,33.567-21.398,71.854, 7.74,73.801c 29.122,1.944, 46.607-33.013, 62.15-42.736c 15.524-9.688, 74.594-31.76, 105.794,3.908
	c 33.976,38.828-22.594,58.92-64.059,65.002c-59.203,8.766-133.95,40.792-128.135,103.907c 5.816,63.074, 53.582,95.414, 103.85,99.976
	c 64.077,5.817, 105.791-9.707, 138.785-37.86c 38.15-32.529, 17.508-68.894-6.799-71.82c-24.212-2.909-51.404,53.504-104.791,54.352
	c-55.027,0.864-92.217-57.261-24.286-73.784c 67.966-16.505, 140.75-23.286, 166.961-85.417
	C 418.49,120.287, 351.507,54.299, 276.74,50.404z"  />
<glyph unicode="&#xe03f;" d="M 128,160A32,32 2700 1 0 192,160A32,32 2700 1 0 128,160zM 320,160A32,32 2700 1 0 384,160A32,32 2700 1 0 320,160zM 321.556,91.611 C 329.797,98.104 341.744,96.688 348.238,88.445 C 354.732,80.202 353.314,68.256 345.071,61.762 C 322.123,43.683 287.16,32 256,32 C 224.839,32 189.876,43.683 166.928,61.761 C 158.685,68.256 157.268,80.202 163.762,88.445 C 170.257,96.686 182.203,98.104 190.445,91.611 C 203.656,81.202 229.806,70 256,70 C 282.194,70 308.344,81.202 321.556,91.611 ZM 512,224c0,35.346-28.654,64-64,64c-24.058,0-44.996-13.285-55.926-32.91c-32.896,17.997-72.976,29.623-116.64,32.304
			l 38.191,85.763l 73.097-21.1C 393.298,333.386, 411.081,320, 432,320c 26.51,0, 48,21.49, 48,48s-21.49,48-48,48
			c-18.28,0-34.171-10.221-42.277-25.257L 308.27,414.255c-9.112,2.629-18.769-1.861-22.626-10.526l-51.885-116.513
			c-42.569-2.998-81.631-14.511-113.818-32.118C 109.009,274.723, 88.058,288, 64,288c-35.346,0-64-28.654-64-64
			c0-26.156, 15.701-48.627, 38.186-58.551C 34.151,153.435, 32,140.897, 32,128c0-88.365, 100.288-160, 224-160
			c 123.711,0, 224,71.635, 224,160c0,12.896-2.15,25.431-6.184,37.443C 496.301,175.368, 512,197.844, 512,224z M 432,386
			c 9.941,0, 18-8.059, 18-18s-8.059-18-18-18s-18,8.059-18,18S 422.059,386, 432,386z M 32,224c0,17.645, 14.355,32, 32,32
			c 12.754,0, 23.786-7.502, 28.923-18.323c-16.724-12.683-30.583-27.313-40.833-43.369C 40.328,199.043, 32,210.564, 32,224z M 256,6
			c-102.725,0-186,54.621-186,122s 83.275,122, 186,122c 102.725,0, 186-54.621, 186-122S 358.725,6, 256,6z M 459.91,194.308
			c-10.25,16.056-24.109,30.686-40.833,43.369C 424.215,248.498, 435.246,256, 448,256c 17.645,0, 32-14.355, 32-32
			C 480,210.564, 471.672,199.043, 459.91,194.308z"  />
<glyph unicode="&#xe040;" d="M 426,480L 86,480 C 38.7,480,0,441.3,0,394l0-340 c0-47.3, 38.7-86, 86-86l 340,0 c 47.3,0, 86,38.7, 86,86L 512,394 C 512,441.3, 473.3,480, 426,480z M 192,64l-64,0 
	L 128,288 l 64,0 L 192,64 z M 160,320c-17.673,0-32,14.327-32,32s 14.327,32, 32,32s 32-14.327, 32-32S 177.673,320, 160,320z M 416,64l-64,0 L 352,192 
	c0,17.673-14.327,32-32,32s-32-14.327-32-32l0-128 l-64,0 L 224,288 l 64,0 l0-39.736 C 301.199,266.396, 321.376,288, 344,288c 39.765,0, 72-35.817, 72-80
	L 416,64 z"  />
<glyph unicode="&#xe041;" d="M 409.79,73.186c-53.333,0.209-81.749,26.291-101.496,72.251l-5.649,12.541l-48.685,111
	c-16.146,39.293-56.211,65.836-101.417,65.836c-61.167,0-110.792-49.626-110.792-110.836c0-61.209, 49.624-110.834, 110.792-110.834
	c 42.669,0, 79.771,24.125, 98.291,59.5l 19.688-45.416c-27.956-34.085-70.438-55.792-117.977-55.792C 68.29,71.436,0,139.687,0,223.979
	c0,84.252, 68.29,152.586, 152.542,152.586c 63.583,0, 114.918-33.959, 141-94.126c 1.978-4.668, 27.579-64.543, 49.913-115.5
	c 13.834-31.541, 25.63-52.459, 63.878-53.752c 37.584-1.291, 63.378,21.584, 63.378,50.504c0,28.25-19.668,35.041-52.875,46.082
	c-59.691,19.667-90.503,39.417-90.503,86.751c0,46.168, 31.416,76.959, 82.457,76.959c 33.248,0, 57.253-14.793, 73.88-44.293
	l-32.628-16.666c-12.295,17.207-25.854,24-43.086,24c-23.956,0-41.063-16.668-41.063-38.833c0-31.461, 28.147-36.211, 67.503-49.127
	C 487.375,231.314, 512,211.604, 512,162.396C 512.001,110.728, 467.664,73.102, 409.79,73.186z"  />
<glyph unicode="&#xe042;" d="M 426,480L 86,480 C 38.7,480,0,441.3,0,394l0-340 c0-47.3, 38.7-86, 86-86l 340,0 c 47.3,0, 86,38.7, 86,86L 512,394 C 512,441.3, 473.3,480, 426,480z
	 M 373.258,99.556c-88.779,0-119.569,40.028-135.986,89.802l-16.425,51.318c-12.319,37.463-26.687,66.712-71.842,66.712
	c-31.31,0-63.123-22.579-63.123-85.699c0-49.264, 25.144-80.056, 60.557-80.056c 40.021,0, 66.71,29.765, 66.71,29.765l 16.425-44.644
	c0,0-27.718-27.197-85.699-27.197c-71.846,0-111.875,42.076-111.875,120.082c0,81.081, 40.029,128.805, 115.464,128.805
	c 68.253,0, 102.64-24.632, 124.188-91.346l 16.936-51.313c 12.318-37.465, 33.867-64.662, 85.698-64.662
	c 34.896,0, 53.367,7.699, 53.367,26.684c0,14.885-8.72,25.66-34.892,31.82l-34.9,8.207c-42.587,10.262-59.522,32.329-59.522,67.226
	c0,55.936, 45.16,73.384, 91.343,73.384c 52.345,0, 84.161-18.988, 88.266-65.172l-51.317-6.16
	c-2.054,22.066-15.396,31.305-40.027,31.305c-22.582,0-36.436-10.265-36.436-27.713c0-15.395, 6.671-24.633, 29.247-29.765
	l 32.842-7.182c 44.135-10.266, 67.746-31.82, 67.746-73.386C 480.001,119.054, 436.895,99.556, 373.258,99.556z"  />
<glyph unicode="&#xe043;" d="M 426.688,480L 85.343,480 C 38.405,480,0,441.592,0,394.654l0-341.312 C0,6.377, 38.405-32, 85.343-32l 341.345,0 
	C 473.625-32, 512,6.376, 512,53.342L 512,394.654 C 512,441.592, 473.625,480, 426.688,480z M 480,53.342c0-14.167-5.57-27.541-15.685-37.658
	C 454.204,5.57, 440.841,0, 426.688,0L 256,0 L 256,224 L 32,224 L 32,394.654 c0,14.154, 5.575,27.525, 15.698,37.648C 57.82,442.425, 71.19,448, 85.343,448
	L 256,448 l0-224 l 224,0 L 480,53.342 z"  />
<glyph unicode="&#xe044;" d="M 426,480L 86,480 C 38.7,480,0,441.3,0,394l0-340 c0-47.3, 38.7-86, 86-86l 340,0 c 47.3,0, 86,38.7, 86,86L 512,394 C 512,441.3, 473.3,480, 426,480z M 256,320
	c-17.645,0-32-14.355-32-32l0-128 c0-52.936-43.065-96-96-96s-96,43.064-96,96l0,64 l 64,0 l0-64 c0-17.645, 14.355-32, 32-32s 32,14.355, 32,32L 160,288 
	c0,52.935, 43.065,96, 96,96c 52.935,0, 96-43.065, 96-89l0-31 l-41-12l-23,12l0,31 C 288,305.645, 273.645,320, 256,320z M 480,160
	c0-52.936-43.065-96-96-96s-96,43.064-96,103l0,62 l 23-12l 41,12l0-62 c0-24.645, 14.355-39, 32-39s 32,14.355, 32,32l0,64 l 64,0 L 480,160 z"  />
<glyph unicode="&#xe045;" d="M 256,480C 114.615,480,0,365.385,0,224s 114.615-256, 256-256s 256,114.615, 256,256S 397.385,480, 256,480z M 256,352
	c-17.645,0-32-14.355-32-32l0-128 c0-52.935-43.065-96-96-96s-96,43.065-96,96l0,64 l 64,0 l0-64 c0-17.645, 14.355-32, 32-32s 32,14.355, 32,32L 160,320 
	c0,52.935, 43.065,96, 96,96s 96-43.065, 96-89l0-31 l-41-12l-23,12l0,31 C 288,337.645, 273.645,352, 256,352z M 384,96
	c-52.935,0-96,43.065-96,103l0,62 l 23-12l 41,12l0-62 c0-24.645, 14.355-39, 32-39s 32,14.355, 32,32l0,64 l 64,0 l0-64 
	C 480,139.065, 436.935,96, 384,96z"  />
<glyph unicode="&#xe023;" d="M 256,480C 114.615,480,0,365.385,0,224s 114.613-256, 256-256c 141.385,0, 256,114.615, 256,256S 397.385,480, 256,480z M 280.822,137.941
	c-23.26,1.807-33.021,13.328-51.252,24.404C 219.54,109.757, 207.288,59.337, 171,33.002
	c-11.202,79.484, 16.447,139.182, 29.285,202.557c-21.892,36.853, 2.635,111.017, 48.81,92.737
	c 56.813-22.474-49.2-137.004, 21.966-151.308c 74.31-14.934, 104.644,128.929, 58.571,175.712
	c-66.579,67.553-193.799,1.54-178.155-95.178c 3.807-23.646, 28.236-30.819, 9.762-63.451c-42.61,9.446-55.325,43.051-53.688,87.856
	c 2.634,73.337, 65.892,124.682, 129.343,131.783c 80.242,8.982, 155.553-29.454, 165.953-104.938
	C 414.553,223.577, 366.623,131.307, 280.822,137.941z"  />
<glyph unicode="&#xe024;" d="M 426.675,480L 85.324,480 C 38.199,480,0,441.79,0,394.657l0-341.315 C0,6.209, 38.199-32, 85.324-32l 341.351,0 
	C 473.8-32, 512,6.209, 512,53.342L 512,394.657 C 512,441.79, 473.8,480, 426.675,480z M 280.822,137.941
	c-23.26,1.807-33.021,13.328-51.252,24.404c-10.030-52.589-22.281-103.009-58.569-129.344
	c-11.202,79.484, 16.447,139.182, 29.285,202.557c-21.893,36.853, 2.635,111.017, 48.81,92.737
	c 56.813-22.474-49.2-137.004, 21.966-151.308c 74.31-14.934, 104.644,128.929, 58.571,175.712
	c-66.579,67.553-193.799,1.54-178.155-95.178c 3.807-23.646, 28.236-30.819, 9.762-63.451c-42.61,9.446-55.325,43.051-53.688,87.856
	c 2.634,73.337, 65.892,124.682, 129.343,131.783c 80.242,8.982, 155.553-29.454, 165.953-104.938
	C 414.553,223.577, 366.623,131.307, 280.822,137.941z"  />
<glyph unicode="&#xe025;" d="M 440.317,414.613c 12.849-6.288, 24.047-15.243, 32.251-26.241c 17.268-23.15, 22.118-54.686, 14.418-93.733
	c-7.78-39.513-25.208-72.867-50.583-97.022c-4.641-4.851-9.611-9.373-14.902-13.54c-27.178-21.401-61.499-32.714-99.254-32.714
	l-6.056,0 L 202.217,151.363 L 169.935,0l-66.212,0 l 5.043,23.15l 23.064,0 l 32.282,151.363l 94.135,0 c 90.125,0, 165.469,55.539, 185.629,149.968
	C 466.737,431.398, 390.077,480, 324.171,480L 99.532,480 L0,23.15l 76.016,0 L 64-32l 131.83,0 l 32.282,151.363l 94.135,0 
	c 90.125,0, 165.469,55.539, 185.629,149.968C 524.734,348.171, 487.474,395.297, 440.317,414.613z M 211.172,386.959l 64.566,0 
	c 32.296,0, 53.801-27.769, 44.393-62.478c-8.068-34.72-41.693-62.488-75.32-62.488l-61.879,0 L 211.172,386.959z"  />
<glyph unicode="&#xe026;" d="M 440.317,414.613c 12.849-6.288, 24.047-15.243, 32.251-26.241c 17.268-23.15, 22.118-54.686, 14.418-93.733
	c-7.78-39.513-25.208-72.867-50.583-97.022c-4.641-4.851-9.611-9.373-14.902-13.54c-27.178-21.401-61.499-32.714-99.254-32.714
	l-6.056,0 L 202.217,151.363 L 169.935,0l-66.212,0 l 5.043,23.15l 23.064,0 l 32.282,151.363l 94.135,0 c 90.125,0, 165.469,55.539, 185.629,149.968
	C 466.737,431.398, 390.077,480, 324.171,480L 99.532,480 L0,23.15l 76.016,0 L 64-32l 131.83,0 l 32.282,151.363l 94.135,0 
	c 90.125,0, 165.469,55.539, 185.629,149.968C 524.734,348.171, 487.474,395.297, 440.317,414.613z M 320.131,324.481
	c-6.862-29.53-32.214-54.020-60.328-60.684l 15.369,68.011l 46.493,0 C 321.301,329.405, 320.804,326.963, 320.131,324.481z M 211.172,386.959
	l 64.566,0 c 18.38,0, 33.254-9.002, 40.935-23.15l-67.077,0 l-23.008-101.815l-43.656,0 L 211.172,386.959z"  />
<glyph unicode="&#xe029;" d="M 324.171,448c 14.166,0, 28.459-2.902, 41.333-8.392c 13.542-5.774, 24.662-13.962, 33.052-24.336
		c 16.799-20.771, 21.519-49.066, 14.025-84.109c-8.153-38.189-27.199-69.98-55.080-91.935c-27.178-21.401-61.499-32.714-99.254-32.714
		l-94.135,0 l-25.895,0 l-5.401-25.325L 105.935,55.15L 82.986,55.15 l-6.971,0 L 39.723,55.15 L 125.311,448L 324.171,448  M 142.893,229.993l 40.039,0 l 61.879,0 
		c 23.718,0, 47.747,9.085, 67.659,25.582c 19.41,16.081, 33.137,37.761, 38.698,61.1c 6.951,26.262, 2.315,52.576-12.757,72.277
		c-14.588,19.070-37.432,30.007-62.673,30.007l-64.566,0 l-25.575,0 l-5.638-24.946l-28.241-124.966L 142.893,229.993 M 324.171,480L 99.532,480 
		L0,23.15l 76.016,0 L 64-32l 131.83,0 l 32.282,151.363l 94.135,0 c 90.125,0, 165.469,55.539, 185.629,149.968
		c 16.858,78.84-20.402,125.966-67.559,145.282c 12.849-6.288, 24.047-15.243, 32.251-26.241c 17.268-23.15, 22.118-54.686, 14.418-93.733
		c-7.78-39.513-25.208-72.867-50.583-97.022c-4.641-4.851-9.611-9.373-14.902-13.54c-27.178-21.401-61.499-32.714-99.254-32.714
		l-6.056,0 L 202.217,151.363 L 169.935,0l-66.212,0 l 5.043,23.15l 23.064,0 l 32.282,151.363l 94.135,0 c 90.125,0, 165.469,55.539, 185.629,149.968
		C 466.737,431.398, 390.077,480, 324.171,480L 324.171,480z M 182.932,261.993l 28.241,124.966l 64.566,0 c 32.296,0, 53.801-27.769, 44.393-62.478
		c-8.068-34.72-41.693-62.488-75.32-62.488L 182.932,261.993 L 182.932,261.993z"  />
<glyph unicode="&#xe02a;" d="M 304.438,153.266c-8.641-8.713-1.334-24.564-1.334-24.564l 65.045-108.609c0,0, 10.68-14.32, 19.932-14.32
		c 9.295,0, 18.477,7.635, 18.477,7.635l 51.422,73.504c0,0, 5.18,9.273, 5.299,17.396c 0.186,11.553-17.227,14.717-17.227,14.717
		l-121.744,39.096C 324.307,158.119, 312.379,161.285, 304.438,153.266zM 298.266,208.008c 6.23-10.564, 23.414-7.486, 23.414-7.486l 121.469,35.503c0,0, 16.553,6.733, 18.916,15.709
		c 2.32,8.977-2.73,19.811-2.73,19.811l-58.049,68.376c0,0-5.031,8.646-15.469,9.516c-11.508,0.979-18.59-12.949-18.59-12.949
		l-68.635-108.005C 298.592,228.481, 292.525,217.725, 298.266,208.008zM 240.877,250.116c 14.304,3.522, 16.574,24.302, 16.574,24.302l-0.972,172.935c0,0-2.157,21.333-11.743,27.116
		c-15.035,9.121-19.491,4.359-23.798,3.722L 120.090,440.719c0,0-9.877-3.268-15.021-11.509c-7.345-11.676, 7.464-28.772, 7.464-28.772
		L 217.355,257.56C 217.355,257.56, 227.7,246.862, 240.877,250.116zM 215.972,180.131c 0.361,13.338-16.015,21.35-16.015,21.35L 91.559,256.243c0,0-16.063,6.623-23.861,2.008
		c-5.975-3.53-11.268-9.92-11.786-15.567l-7.060-86.906c0,0-1.058-15.057, 2.845-21.91c 5.527-9.721, 23.714-2.951, 23.714-2.951
		l 126.548,27.971C 206.875,162.193, 215.496,162.49, 215.972,180.131zM 247.44,133.229c-10.863,5.578-23.862-5.975-23.862-5.975l-84.734-93.283c0,0-10.572-14.264-7.884-23.025
		c 2.533-8.209, 6.727-12.289, 12.659-15.164l 85.096-26.863c0,0, 10.317-2.143, 18.129,0.121c 11.090,3.215, 9.047,20.576, 9.047,20.576
		l 1.924,126.301C 257.814,115.916, 257.381,128.084, 247.44,133.229z"  />
<glyph unicode="&#xe02b;" d="M 426.671,480L 85.343,480 C 38.406,480,0,441.595,0,394.655l0-341.311 C0,6.375, 38.406-32, 85.343-32l 341.328,0 
	C 473.609-32, 512,6.375, 512,53.345L 512,394.655 C 512,441.595, 473.609,480, 426.671,480z M 469.967,10.029
	C 458.341-1.597, 442.965-8, 426.671-8L 85.343-8 c-16.294,0-31.674,6.403-43.304,18.031C 30.406,21.661, 24,37.043, 24,53.344
	L 24,394.655 c0,16.292, 6.407,31.671, 18.041,43.305C 53.674,449.593, 69.053,456, 85.343,456l 341.328,0 c 3.549,0, 7.050-0.322, 10.483-0.918
	l-105.649-145.030l-49.022,49.025c-6.903,6.904-16.085,10.706-25.853,10.706c-9.766,0-18.948-3.801-25.858-10.706l-22.257-22.258
	c-1.249,1.702-2.545,3.382-3.939,5.012c-30.324,35.439-83.635,39.604-119.074,9.271c-35.443-30.319-39.593-83.625-9.268-119.070
	c 6.955-8.134, 15.131-14.599, 24.015-19.397c 0.18-9.12, 3.729-18.187, 10.669-25.132L 230.77,67.663
	c 6.907-6.91, 16.091-10.717, 25.86-10.717c 9.771,0, 18.953,3.808, 25.853,10.715l 119.849,119.841c 6.91,6.908, 10.717,16.092, 10.717,25.86
	s-3.807,18.953-10.715,25.858l-13.789,13.79L 488,340.481l0-287.137 C 488,37.041, 481.596,21.658, 469.967,10.029z M 220.198,314.562
	l 27.541,27.542c 2.375,2.373, 5.532,3.68, 8.891,3.68c 3.357,0, 6.512-1.306, 8.882-3.676l 51.688-51.691l-56.18-77.121
	c-5.547-6.188-10.435-2.932-12.363-0.633c-0.662,0.779-13.843,18.037-30.887,40.391
	C 226.232,272.423, 227.148,294.461, 220.198,314.562z M 250.020,143.982c0,0, 4.353-4.040, 9.158-0.137l 110.959,93.631l 15.228-15.229
	c 2.375-2.374, 3.684-5.529, 3.684-8.886s-1.309-6.512-3.686-8.888L 265.507,84.627c-2.37-2.373-5.522-3.681-8.877-3.681
	c-3.356,0-6.512,1.309-8.888,3.686l-118.63,118.619c 13.809-1.857, 28.036-0.313, 41.323,4.74L 250.020,143.982z"  />
<glyph unicode="&#xe046;" d="M 511.845,480l-56.539,0 L 331.505,310.052l-49.022,49.025c-6.903,6.904-16.085,10.706-25.853,10.706
	c-9.766,0-18.948-3.801-25.858-10.706l-22.257-22.258c-1.249,1.702-2.545,3.382-3.939,5.012
	c-30.324,35.439-83.635,39.604-119.074,9.271c-35.443-30.319-39.593-83.625-9.268-119.070c 6.955-8.134, 15.131-14.599, 24.015-19.397
	c 0.18-9.12, 3.729-18.187, 10.669-25.132L 230.77,67.663c 6.907-6.91, 16.091-10.717, 25.86-10.717c 9.771,0, 18.953,3.808, 25.853,10.715
	l 119.849,119.841c 6.91,6.908, 10.717,16.092, 10.717,25.86s-3.807,18.953-10.715,25.858l-13.789,13.79l 123.301,104.045L 511.846,480 z
	 M 247.739,342.104c 2.375,2.373, 5.532,3.68, 8.891,3.68c 3.357,0, 6.512-1.306, 8.882-3.676l 51.688-51.691l-56.18-77.121
	c-5.547-6.188-10.435-2.932-12.363-0.633c-0.662,0.779-13.843,18.037-30.887,40.391c 8.462,19.37, 9.378,41.408, 2.428,61.509
	L 247.739,342.104z M 385.364,222.248c 2.375-2.374, 3.684-5.529, 3.684-8.886s-1.309-6.512-3.686-8.888L 265.507,84.627
	c-2.37-2.373-5.522-3.681-8.877-3.681c-3.356,0-6.512,1.309-8.888,3.686l-118.63,118.619c 13.809-1.857, 28.036-0.313, 41.323,4.74
	l 79.585-64.009c0,0, 4.353-4.040, 9.158-0.137l 110.959,93.631L 385.364,222.248z"  />
<glyph unicode="&#xe047;" d="M 30.269,480l 41.072-460.815L 255.719-32l 184.862,51.262L 481.731,480L 30.269,480 z M 405.381,48.588L 256.768,7.4l0-0.233 
		l-0.388,0.117l-0.391-0.117L 255.989,7.4 l-148.611,41.188L 72.257,442.331l 368.248,0 L 405.381,48.588zM 325.377,214.898L 318.842,141.622L 255.874,124.626L 255.737,124.587L 192.806,141.545L 188.781,186.662L 132.036,186.662L 139.951,97.906L 255.737,65.779L 255.797,65.779L 255.874,65.779L 255.989,65.818L 371.66,97.906L 387.18,271.412L 181.197,271.412L 176.046,329.286L 392.117,329.286L 392.313,329.286L 397.369,385.799L 114.26,385.799L 129.509,214.898 	z"  />
<glyph unicode="&#xe048;" d="M 30.269,480l 41.072-460.815L 255.719-32l 184.862,51.262L 481.731,480L 30.269,480 z M 392.315,329.286l-0.195,0 L 176.045,329.286 l 5.151-57.875
	L 387.18,271.411 l-15.521-173.505L 255.99,65.818l-0.115-0.039l-0.077,0 l-0.061,0 l-115.786,32.127l-7.915,88.756l 56.747,0 l 4.024-45.116
	l 62.931-16.958l 0.139,0.039l 62.967,16.996l 6.535,73.275L 129.509,214.898 L 114.262,385.798l 283.107,0 L 392.315,329.286z"  />
<glyph unicode="&#xe049;" d="M 256,416L0,192l 64,0 l0-160 l 128,0 l0,96 l 128,0 l0-96 l 128,0 L 448,192 l 64,0 L 256,416z M 240,192l-48,0 l0,48 l 48,0 L 240,192 z M 240,272l-48,0 l0,48 l 48,0 L 240,272 z M 320,192l-48,0 
		l0,48 l 48,0 L 320,192 z M 320,272l-48,0 l0,48 l 48,0 L 320,272 z"  />
<glyph unicode="&#xe04a;" d="M 512,184.778 L 256,383.491 L 0,184.777 L 0,265.796 L 256,464.509 L 512,265.795 ZM 448,192 L 448,0 L 320,0 L 320,128 L 192,128 L 192,0 L 64,0 L 64,192 L 256,336 Z"  />
<glyph unicode="&#xe04b;" d="M 512,176L 416,272L 416,416L 352,416L 352,336L 256,432L0,176L0,160L 64,160L 64,0L 224,0L 224,96L 288,96L 288,0L 448,0L 448,160L 512,160 z"  />
<glyph unicode="&#xe04c;" d="M 267.313,468.686C 261.091,474.908, 248.8,480, 240,480L 48,480 c-8.8,0-16-7.2-16-16l0-480 c0-8.8, 7.2-16, 16-16l 384,0 c 8.8,0, 16,7.2, 16,16L 448,272 
		c0,8.8-5.091,21.091-11.313,27.313L 267.313,468.686z M 416,0L 64,0 L 64,448 l 175.579,0 c 1.458-0.24, 4.204-1.377, 5.405-2.239l 168.778-168.777
		c 0.861-1.201, 1.998-3.947, 2.238-5.405L 416,0 zM 432,480l-96,0 c-8.8,0-10.909-5.091-4.687-11.313l 105.373-105.373C 442.909,357.091, 448,359.2, 448,368L 448,464 C 448,472.8, 440.8,480, 432,480
		z"  />
<glyph unicode="&#xe04d;" d="M 421.006,185.26c-6.824,6.723-21.957,10.283-44.986,10.586c-15.589,0.172-34.351-1.201-54.085-3.964
		c-8.837,5.099-17.946,10.647-25.094,17.329c-19.231,17.958-35.284,42.886-45.288,70.297c 0.652,2.56, 1.207,4.81, 1.724,7.106
		c0,0, 10.833,61.53, 7.965,82.333c-0.395,2.853-0.637,3.681-1.404,5.898l-0.941,2.417c-2.948,6.796-8.724,13.997-17.783,13.604
		l-5.312,0.169l-0.146,0.003c-10.1,0-18.332-5.166-20.493-12.887c-6.569-24.217, 0.209-60.446, 12.491-107.369l-3.144-7.643
		c-8.794-21.438-19.815-43.030-29.539-62.079l-1.264-2.476c-10.23-20.019-19.512-37.013-27.927-51.411l-8.688-4.594
		c-0.632-0.334-15.522-8.209-19.014-10.322c-29.628-17.691-49.261-37.77-52.518-53.708c-1.036-5.085-0.265-11.593, 5.007-14.607
		l 8.403-4.229c 3.645-1.826, 7.489-2.751, 11.427-2.751c 21.102,0, 45.6,26.286, 79.348,85.183
		c 38.965,12.684, 83.327,23.228, 122.207,29.045c 29.629-16.684, 66.071-28.273, 89.071-28.273c 4.084,0, 7.606,0.389, 10.466,1.148
		c 4.411,1.168, 8.129,3.683, 10.396,7.096c 4.463,6.716, 5.367,15.966, 4.156,25.438C 425.68,179.411, 423.435,182.887, 421.006,185.26z
		 M 105.823,72.976c 3.848,10.521, 19.080,31.322, 41.602,49.778c 1.416,1.148, 4.904,4.416, 8.097,7.451
		C 131.971,92.643, 116.199,77.672, 105.823,72.976z M 239.217,380.157c 6.783,0, 10.642-17.097, 10.962-33.127
		c 0.32-16.030-3.429-27.28-8.079-35.604c-3.851,12.324-5.713,31.75-5.713,44.452C 236.387,355.878, 236.104,380.157, 239.217,380.157z
		 M 199.426,161.253c 4.725,8.458, 9.641,17.378, 14.665,26.839c 12.246,23.158, 19.979,41.278, 25.739,56.173
		c 11.455-20.842, 25.722-38.56, 42.493-52.756c 2.092-1.771, 4.309-3.551, 6.637-5.325C 254.855,179.436, 225.378,171.229, 199.426,161.253z
		 M 414.452,163.174c-2.077-1.299-8.027-2.050-11.854-2.050c-12.353,0-27.636,5.647-49.063,14.833
		c 8.234,0.609, 15.781,0.919, 22.55,0.919c 12.391,0, 16.060,0.054, 28.175-3.036S 416.529,164.473, 414.452,163.174zM 451.716,380.285l-71.432,71.431C 364.728,467.272, 334,480, 312,480L 72,480 C 50,480, 32,462, 32,440l0-432 c0-22, 18-40, 40-40l 368,0 
		c 22,0, 40,18, 40,40L 480,312 C 480,334, 467.272,364.729, 451.716,380.285z M 429.089,357.657c 1.565-1.565, 3.125-3.487, 4.64-5.657L 352,352 L 352,433.728 
		c 2.17-1.515, 4.092-3.075, 5.657-4.64L 429.089,357.657z M 448,8c0-4.336-3.664-8-8-8L 72,0 c-4.336,0-8,3.664-8,8L 64,440 
		c0,4.336, 3.664,8, 8,8l 240,0 c 2.416,0, 5.127-0.305, 8-0.852L 320,320 l 127.148,0 c 0.547-2.873, 0.852-5.583, 0.852-8L 448,8 z"  />
<glyph unicode="&#xe04e;" d="M 345.11,244.159c-30.334,14.326-68.986,17.21-97.417-3.024c 34.57,3.302, 72.479-2.419, 97.553-28.562
			c 24,27.54, 62.057,32.703, 96.479,29.866C 412.981,261.511, 375.115,258.951, 345.11,244.159zM 332.824,177.125c-34.189,0.789-67.217-11.586-95.55-30.052c-53.588,22.794-121.368,18.562-167.001-19.491
			c 13.165,0.467, 26.003,3.723, 39.028,5.396c 47.591,4.744, 98.294-7.071, 134.256-39.912c 14.886,21.771, 35.822,39.121, 59.826,49.961
			c 31.537,15.26, 67.080,16.842, 101.41,17.26C 383.949,174.611, 357.485,177.264, 332.824,177.125zM 451.716,380.285l-71.432,71.431C 364.728,467.272, 334,480, 312,480L 72,480 C 50,480, 32,462, 32,440l0-432 c0-22, 18-40, 40-40l 368,0 
		c 22,0, 40,18, 40,40L 480,312 C 480,334, 467.272,364.729, 451.716,380.285z M 429.089,357.657c 1.565-1.565, 3.125-3.487, 4.64-5.657L 352,352 L 352,433.728 
		c 2.17-1.515, 4.092-3.075, 5.657-4.64L 429.089,357.657z M 448,8c0-4.336-3.664-8-8-8L 72,0 c-4.336,0-8,3.664-8,8L 64,440 
		c0,4.336, 3.664,8, 8,8l 240,0 c 2.416,0, 5.127-0.305, 8-0.852L 320,320 l 127.148,0 c 0.547-2.873, 0.852-5.583, 0.852-8L 448,8 z"  />
<glyph unicode="&#xe04f;" d="M 371.514,288L 303.867,288L 256.001,217.484L 208.131,288L 140.487,288L 221.568,166.768L 130.081,32L 261.201,32L 261.201,77.788L 230.923,77.788L 256.001,115.285L 311.699,32L 381.92,32L 290.432,166.768 	zM 451.716,380.285l-71.432,71.431C 364.728,467.272, 334,480, 312,480L 72,480 C 50,480, 32,462, 32,440l0-432 c0-22, 18-40, 40-40l 368,0 
		c 22,0, 40,18, 40,40L 480,312 C 480,334, 467.272,364.729, 451.716,380.285z M 429.089,357.657c 1.565-1.565, 3.125-3.487, 4.64-5.657L 352,352 L 352,433.728 
		c 2.17-1.515, 4.092-3.075, 5.657-4.64L 429.089,357.657z M 448,8c0-4.336-3.664-8-8-8L 72,0 c-4.336,0-8,3.664-8,8L 64,440 
		c0,4.336, 3.664,8, 8,8l 240,0 c 2.416,0, 5.127-0.305, 8-0.852L 320,320 l 127.148,0 c 0.547-2.873, 0.852-5.583, 0.852-8L 448,8 z"  />
<glyph unicode="&#xe050;" d="M 319.889,242.054L 341.995,242.054L 316.489,128.965L 283.326,287.97L 230.051,287.97L 191.494,128.965L 162.586,287.97L 106.889,287.97L 163.435,32.029L 217.854,32.029L 256.001,183.383L 290.129,32.029L 340.297,32.029L 405.112,287.97L 319.889,287.97 	
		zM 451.716,380.285l-71.432,71.431C 364.728,467.272, 334,480, 312,480L 72,480 C 50,480, 32,462, 32,440l0-432 c0-22, 18-40, 40-40l 368,0 
		c 22,0, 40,18, 40,40L 480,312 C 480,334, 467.272,364.729, 451.716,380.285z M 429.089,357.657c 1.565-1.565, 3.125-3.487, 4.64-5.657L 352,352 L 352,433.728 
		c 2.17-1.515, 4.092-3.075, 5.657-4.64L 429.089,357.657z M 448,8c0-4.336-3.664-8-8-8L 72,0 c-4.336,0-8,3.664-8,8L 64,440 
		c0,4.336, 3.664,8, 8,8l 240,0 c 2.416,0, 5.127-0.305, 8-0.852L 320,320 l 127.148,0 c 0.547-2.873, 0.852-5.583, 0.852-8L 448,8 z"  />
<glyph unicode="&#xe051;" d="M 208,416L 256,416L 256,384L 208,384zM 160,384L 208,384L 208,352L 160,352zM 208,352L 256,352L 256,320L 208,320zM 160,320L 208,320L 208,288L 160,288zM 208,288L 256,288L 256,256L 208,256zM 160,256L 208,256L 208,224L 160,224zM 208,224l0-32 l-48,0 l0-112 c0-8.837, 7.163-16, 16-16l 64,0 c 8.837,0, 16,7.163, 16,16L 256,224 L 208,224 z M 240,96l-64,0 l0,32 l 64,0 L 240,96 zM 451.716,380.285l-71.432,71.431C 364.728,467.272, 334,480, 312,480L 72,480 C 50,480, 32,462, 32,440l0-432 c0-22, 18-40, 40-40l 368,0 
		c 22,0, 40,18, 40,40L 480,312 C 480,334, 467.272,364.729, 451.716,380.285z M 429.089,357.657c 1.565-1.565, 3.125-3.487, 4.64-5.657L 352,352 L 352,433.728 
		c 2.17-1.515, 4.092-3.075, 5.657-4.64L 429.089,357.657z M 448,8c0-4.336-3.664-8-8-8L 72,0 c-4.336,0-8,3.664-8,8L 64,440 
		c0,4.336, 3.664,8, 8,8l 240,0 c 2.416,0, 5.127-0.305, 8-0.852L 320,320 l 127.148,0 c 0.547-2.873, 0.852-5.583, 0.852-8L 448,8 z"  />
<glyph unicode="&#xe052;" d="M 96,224l 96,0 l0-32 L 96,192 L 96,224 z M 96,160l 96,0 l0-32 L 96,128 L 96,160 z M 96,96l 96,0 l0-32 L 96,64 L 96,96 z M 451.716,380.285l-71.432,71.431
	C 364.728,467.272, 334,480, 312,480L 72,480 C 50,480, 32,462, 32,440l0-432 c0-22, 18-40, 40-40l 368,0 c 22,0, 40,18, 40,40L 480,312 
	C 480,334, 467.272,364.729, 451.716,380.285z M 429.089,357.657c 1.565-1.565, 3.125-3.487, 4.64-5.657L 352,352 L 352,433.728 
	c 2.17-1.515, 4.092-3.075, 5.657-4.64L 429.089,357.657z M 448,8c0-4.336-3.664-8-8-8L 72,0 c-4.336,0-8,3.664-8,8L 64,440 c0,4.336, 3.664,8, 8,8
	l 240,0 c 2.416,0, 5.127-0.305, 8-0.852L 320,320 l 127.148,0 c 0.547-2.873, 0.852-5.583, 0.852-8L 448,8 zM 288,128 L 382.396,128 C 374.983,91.484 342.703,64 304,64 C 259.817,64 224,99.817 224,144 C 224,182.703 251.485,214.983 288,222.396 L 288,128 ZM 336,256 C 380.183,256 416,220.183 416,176 C 416,170.521 415.446,165.17 414.396,160 L 320,160 L 320,254.396 C 325.17,255.446 330.521,256 336,256 Z"  />
<glyph unicode="&#xe053;" d="M 224,192L 192,224L 96,128L 192,32L 224,64L 160,128 	zM 288,64L 320,32L 416,128L 320,224L 288,192L 352,128 	zM 451.716,380.285l-71.432,71.431C 364.728,467.272, 334,480, 312,480L 72,480 C 50,480, 32,462, 32,440l0-432 c0-22, 18-40, 40-40l 368,0 
		c 22,0, 40,18, 40,40L 480,312 C 480,334, 467.272,364.729, 451.716,380.285z M 429.089,357.657c 1.565-1.565, 3.125-3.487, 4.64-5.657L 352,352 L 352,433.728 
		c 2.17-1.515, 4.092-3.075, 5.657-4.64L 429.089,357.657z M 448,8c0-4.336-3.664-8-8-8L 72,0 c-4.336,0-8,3.664-8,8L 64,440 
		c0,4.336, 3.664,8, 8,8l 240,0 c 2.416,0, 5.127-0.305, 8-0.852L 320,320 l 127.148,0 c 0.547-2.873, 0.852-5.583, 0.852-8L 448,8 z"  />
<glyph unicode="&#xe054;" d="M 192,174.277L 192,231.39 c0,7.564, 3.348,14.718, 9.427,20.143c 6.080,5.424, 14.096,8.413, 22.573,8.413l0,28.555 
		c-35.2,0-64-25.7-64-57.111l0-42.833 c0-7.886-7.164-14.279-16-14.279l-16,0 l0-28.555 l 16,0 c 8.837,0, 16-6.395, 16-14.279l0-42.838 
		c0-31.407, 28.8-57.107, 64-57.107l0,28.556 c-8.477,0-16.494,2.988-22.573,8.413c-6.079,5.426-9.427,12.577-9.427,20.139l0,57.117 
		c0,7.885-7.164,14.277-16,14.277C 184.837,160, 192,166.395, 192,174.277zM 320,145.723l0-57.117 c0-7.562-3.348-14.713-9.427-20.139c-6.079-5.425-14.095-8.413-22.573-8.413l0-28.556 
		c 35.201,0, 64,25.7, 64,57.107l0,42.838 c0,7.886, 7.164,14.279, 16,14.279l 16,0 l0,28.555 l-16,0 c-8.836,0-16,6.395-16,14.279L 352,231.39 
		c0,31.412-28.799,57.111-64,57.111l0-28.555 c 8.479,0, 16.494-2.989, 22.573-8.415c 6.080-5.424, 9.427-12.578, 9.427-20.142l0-57.114 
		c0-7.883, 7.164-14.276, 16-14.276C 327.164,160, 320,153.605, 320,145.723zM 451.716,380.285l-71.432,71.431C 364.728,467.272, 334,480, 312,480L 72,480 C 50,480, 32,462, 32,440l0-432 c0-22, 18-40, 40-40l 368,0 
		c 22,0, 40,18, 40,40L 480,312 C 480,334, 467.272,364.729, 451.716,380.285z M 429.089,357.657c 1.565-1.565, 3.125-3.487, 4.64-5.657L 352,352 L 352,433.728 
		c 2.17-1.515, 4.092-3.075, 5.657-4.64L 429.089,357.657z M 448,8c0-4.336-3.664-8-8-8L 72,0 c-4.336,0-8,3.664-8,8L 64,440 
		c0,4.336, 3.664,8, 8,8l 240,0 c 2.416,0, 5.127-0.305, 8-0.852L 320,320 l 127.148,0 c 0.547-2.873, 0.852-5.583, 0.852-8L 448,8 z"  />
<glyph unicode="&#xe055;" d="M 129.139,256.729 L 55.873,383.63 C 102.782,442.362 174.99,480 256,480 C 349.716,480 431.655,429.632 476.266,354.5 L 267.381,354.5 C 263.629,354.825 259.835,355 256,355 C 195.063,355 143.711,313.178 129.139,256.729 ZM 347.653,317.5 L 494.383,317.5 C 505.753,288.535 512,256.998 512,224 C 512,83.587 398.95-30.402 258.907-31.963 L 363.604,149.376 C 378.344,170.565 387,196.289 387,224 C 387,260.585 371.918,293.71 347.653,317.5 ZM 163,224 C 163,275.28 204.72,317 256,317 C 307.28,317 349,275.28 349,224 C 349,172.72 307.28,131 256,131 C 204.72,131 163,172.72 163,224 ZM 291.091,97.779 L 217.802-29.16 C 94.536-10.718 0,95.598 0,224 C 0,269.609 11.942,312.423 32.848,349.512 L 137.363,168.485 C 158.297,123.929 203.601,93 256,93 C 268.15,93 279.918,94.67 291.091,97.779 Z"  />
<glyph unicode="&#xe056;" d="M 511.263,312.93l-5.93-38.040c0,0-8.477,70.428-18.866,96.757c-15.923,40.344-23.007,40.020-23.054,39.961
	c 10.665-27.102, 8.731-41.662, 8.731-41.662s-18.896,51.499-68.856,67.884c-55.343,18.141-85.285,13.182-88.744,12.243
	c-0.525,0.004-1.032,0.005-1.515,0.005c 0.409-0.031, 0.806-0.073, 1.213-0.106c-0.017-0.010-0.045-0.021-0.041-0.026
	c 0.225-0.274, 61.153-10.651, 71.958-25.498c0,0-25.88,0-51.636-7.421c-1.164-0.333, 94.762-11.982, 114.373-107.837
	c0,0-10.515,21.938-23.52,25.664c 8.553-26.018, 6.357-75.388-1.788-99.925c-1.048-3.156-2.12,13.641-18.164,20.875
	c 5.14-36.823-0.308-95.228-25.854-111.316c-1.991-1.252, 16.015,57.655, 3.621,34.881c-71.354-109.401-155.702-50.486-193.624-24.555
	c 19.433-4.231, 56.327,0.659, 72.657,12.806c 0.021,0.015, 0.039,0.028, 0.059,0.043c 17.734,12.126, 28.236,20.982, 37.667,18.886
	c 9.437-2.107, 15.719,7.363, 8.39,15.765c-7.338,8.419-25.157,19.989-49.262,13.683c-17-4.452-38.067-23.261-70.224-4.216
	c-24.682,14.625-27.006,26.773-27.225,35.188c 0.609,2.983, 1.377,5.768, 2.288,8.312c 2.841,7.935, 11.456,10.329, 16.247,12.219
	c 8.128-1.396, 15.131-3.931, 22.484-7.703c 0.095,2.447, 0.126,5.695-0.009,9.38c 0.705,1.401, 0.269,5.626-0.861,10.79
	c-0.651,5.154-1.71,10.487-3.376,15.346c 0.006,0.001, 0.010,0.005, 0.015,0.007c 0.028,0.009, 0.054,0.020, 0.078,0.035
	c 0.039,0.022, 0.073,0.056, 0.104,0.095c 0.006,0.010, 0.015,0.017, 0.022,0.026c 0.041,0.062, 0.077,0.136, 0.099,0.233
	c 0.51,2.309, 6.011,6.762, 12.859,11.55c 6.136,4.29, 13.351,8.848, 19.034,12.376c 5.030,3.124, 8.86,5.441, 9.673,6.049
	c 0.309,0.233, 0.679,0.506, 1.082,0.818c 0.075,0.058, 0.15,0.116, 0.227,0.177c 0.047,0.037, 0.095,0.074, 0.143,0.113
	c 2.705,2.154, 6.742,6.224, 7.589,14.789c 0.002,0.021, 0.005,0.040, 0.006,0.061c 0.025,0.252, 0.046,0.507, 0.065,0.767
	c 0.014,0.181, 0.025,0.363, 0.036,0.548c 0.007,0.142, 0.016,0.283, 0.022,0.428c 0.015,0.337, 0.025,0.682, 0.030,1.032
	c0,0.020, 0.001,0.038, 0.002,0.058c 0.011,0.829-0.003,1.693-0.052,2.601c-0.027,0.507-0.063,0.965-0.149,1.381
	c-0.004,0.022-0.009,0.046-0.014,0.068c-0.009,0.041-0.018,0.082-0.029,0.122c-0.018,0.073-0.038,0.146-0.061,0.215
	c-0.003,0.009-0.005,0.016-0.008,0.023c-0.026,0.080-0.056,0.157-0.087,0.232c-0.002,0.003-0.002,0.005-0.003,0.008
	c-0.877,2.054-4.16,2.829-17.721,3.059c-0.013,0.001-0.025,0.001-0.038,0.001l0,0c-5.533,0.094-12.769,0.097-22.251,0.059
	c-16.625-0.067-25.814,16.252-28.747,22.566c 4.020,22.23, 15.638,38.071, 34.725,48.813c 0.361,0.203, 0.29,0.371-0.137,0.489
	c 3.732,2.257-45.123,0.062-67.593-28.518c-19.944,4.957-37.327,4.623-52.308,1.107c-2.877,0.081-6.462,0.44-10.717,1.326
	c-9.962,9.028-24.224,25.701-24.988,45.604c0,0-0.046-0.036-0.126-0.102c-0.010,0.191-0.028,0.38-0.036,0.571
	c0,0-30.358-23.332-25.814-86.941c-0.011-1.018-0.032-1.993-0.060-2.937c-8.216-11.144-12.293-20.51-12.596-22.578
	C 13.398,316.822, 6.011,294.517,0,260.654c0,0, 4.204,13.333, 12.642,28.433c-6.206-19.011-11.082-48.578-8.218-92.928
	c0,0, 0.757,9.833, 3.437,23.997c 2.093-27.505, 11.259-61.462, 34.429-101.394c 44.474-76.66, 112.835-115.37, 188.396-121.308
	c 13.418-1.106, 27.025-1.132, 40.712-0.093c 1.258,0.089, 2.516,0.182, 3.775,0.287c 15.482,1.087, 31.067,3.426, 46.619,7.183
	C 534.378,56.23, 511.263,312.93, 511.263,312.93z"  />
<glyph unicode="&#xe057;" d="M 367.101,165.585l 118.025,0 c 0.91,8.185, 1.274,16.549, 1.274,25.098c0,40.112-10.767,77.734-29.562,110.133
	c 19.44,51.654, 18.746,95.494-7.278,121.695c-24.748,24.64-91.145,20.64-166.206-12.599c-5.552,0.42-11.159,0.636-16.819,0.636
	c-103.024,0-189.463-70.897-213.354-166.425C 85.5,285.5, 119.5,315.5, 164.92,337.347c-4.13-3.87-28.227-27.826-32.28-31.882
	C 12.866,185.726-24.905,29.312, 15.737-11.337c 30.893-30.887, 86.879-25.671, 151.188,5.824
	c 29.903-15.229, 63.75-23.815, 99.609-23.815c 96.567,0, 178.402,62.158, 208.045,148.724L 355.645,119.396 
	c-16.367-30.191-48.374-50.74-85.109-50.74c-36.734,0-68.742,20.549-85.108,50.74c-7.275,13.637-11.457,29.277-11.457,45.828l0,0.361 
	L 367.101,165.585 z M 174.151,223.598c 2.728,48.555, 43.1,87.292, 92.383,87.292c 49.283,0, 89.656-38.736, 92.383-87.292L 174.151,223.598 z M 448.483,398.096
	c 16.763-16.94, 16.344-48.107, 2.006-87.011c-24.568,37.454-60.259,66.968-102.396,83.82
	C 393.146,414.224, 429.796,416.783, 448.483,398.096z M 46.741-3.628c-21.391,21.398-14.942,66.309, 12.615,120.416
	c 17.154-48.135, 50.578-88.545, 93.668-114.577C 105.309-19.448, 66.256-23.126, 46.741-3.628z"  />
<glyph unicode="&#xe058;" d="M 255.023,480C 115.161,480, 14.649,378.552, 14.649,226.388C 14.649,90.979, 112.4-32, 255.041-32
	c 144.039,0, 242.31,122.943, 242.31,258.388C 497.351,379.768, 393.628,480, 255.023,480z M 344.179,230.729
	c-0.034-84.676-4.549-205.241-89.138-205.241l0-0.017 c-83.392,0-86.716,120.633-86.716,205.154c0,99.19, 9.28,194.284, 86.716,194.284
	C 332.478,424.909, 344.179,328.617, 344.179,230.729z"  />
<glyph unicode="&#xe059;" d="M 256,448c-12.032,0-23.854-0.896-35.412-2.606c-0.15,0.391-0.312,0.774-0.491,1.148c 6.413,5.001, 9.775,11.915, 8.317,18.776
		C 226.547,474.1, 217.217,480, 205.197,480c-2.59,0-5.229-0.281-7.84-0.836c-15.084-3.207-25.073-14.311-22.741-25.281
		c 1.417-6.669, 7.146-11.669, 15.082-13.692c-0.016-0.486-0.008-0.975, 0.021-1.467C 89.408,409.959, 16,317.555, 16,208
		c0-132.549, 107.452-240, 240-240c 132.549,0, 240,107.451, 240,240C 496,340.548, 388.549,448, 256,448z M 182.441,455.546
		c-1.353,6.363, 6.24,13.595, 16.579,15.792C 201.086,471.777, 203.165,472, 205.197,472c 8.018,0, 14.347-3.432, 15.392-8.345
		c 0.798-3.755-1.535-7.805-5.693-10.952c-3.517,2.483-8.008,3.563-12.55,2.598c-4.522-0.961-8.174-3.754-10.379-7.428
		C 186.875,449.098, 183.213,451.915, 182.441,455.546z M 384.693,79.307c-21.984-21.984-48.605-37.639-77.655-46.077l-21.198,34.384
		l-5.373-39.979C 272.422,26.559, 264.254,26, 256,26c-48.614,0-94.318,18.932-128.693,53.307
		c-21.984,21.983-37.639,48.605-46.077,77.654l 34.384,21.199l-39.98,5.373C 74.559,191.578, 74,199.746, 74,208
		c0,48.614, 18.931,94.318, 53.307,128.693c 21.984,21.984, 48.606,37.639, 77.655,46.078l 21.198-34.385l 5.374,39.98
		C 239.578,389.441, 247.746,390, 256,390c 48.614,0, 94.318-18.931, 128.693-53.307c 21.984-21.984, 37.639-48.606, 46.077-77.655
		l-34.385-21.199l 39.98-5.373C 437.441,224.422, 438,216.254, 438,208C 438,159.386, 419.068,113.682, 384.693,79.307zM 380.451,332.451l-98.489-74.852c-7.322,3.829-15.438,6.031-23.708,6.363l-25.54,53.59l-1.534-59.332
		c-6.642-3.268-12.552-7.832-17.438-13.475l-31.544,11.182l 23.046-24.269c-3.167-6.759-4.933-14.015-5.217-21.412l-53.579-25.533
		l 59.369-1.534c 0.19-0.384, 0.387-0.763, 0.585-1.141l-74.852-98.49l 98.489,74.852c 7.322-3.828, 15.437-6.030, 23.708-6.362l 25.54-53.591
		l 1.533,59.332c 6.643,3.269, 12.553,7.832, 17.439,13.476l 31.545-11.184l-23.047,24.27c 3.168,6.76, 4.934,14.015, 5.218,21.412
		l 53.578,25.533l-59.368,1.535c-0.189,0.383-0.387,0.762-0.585,1.14L 380.451,332.451z M 256.051,257.733l0-1.724 L 256.051,257.733 
		L 256.051,257.733z M 246.021,254.951c 3.363,0.715, 6.722,1.059, 10.028,1.059c 2.072,0, 4.125-0.135, 6.147-0.398l 0.046-0.016
		l-0.005,0.011c 4.366-0.572, 8.588-1.75, 12.566-3.448l-35.773-27.188l-27.19-35.776c-1.188,2.797-2.135,5.742-2.79,8.826
		C 203.537,223.951, 220.090,249.439, 246.021,254.951z M 281.060,167.058L 281.060,167.058L 281.060,167.058
		c-4.528-2.772-9.591-4.842-15.080-6.009c-3.363-0.715-6.722-1.059-10.027-1.059c-2.075,0-4.129,0.136-6.154,0.399l-0.039,0.015
		l 0.005-0.010c-4.367,0.571-8.587,1.75-12.566,3.447l 35.772,27.188l 27.19,35.777c 1.188-2.797, 2.135-5.743, 2.79-8.827
		C 307.296,197.538, 297.923,177.379, 281.060,167.058z"  />
<glyph unicode="&#xe05a;" d="M 129.772,224.001A59.223,59.223 12780 1 0 248.218,224.001A59.223,59.223 12780 1 0 129.772,224.001zM 256.002,480C 114.615,480,0,365.384,0,224s 114.613-256, 256.002-256C 397.384-32, 512,82.615, 512,224
		C 512,365.384, 397.385,480, 256.002,480z M 189.698,0.359C 112.72,45.146, 60.964,128.521, 60.964,224
		c0,95.479, 51.756,178.854, 128.731,223.641C 266.7,402.86, 318.49,319.497, 318.49,224C 318.49,128.506, 266.7,45.141, 189.698,0.359z"  />
<glyph unicode="&#xe05b;" d="M0,320L 512,320L 512,288L0,288zM0,192L 512,192L 512,160L0,160zM0,64L 512,64L 512,32L0,32zM0,384L 512,384L 512,352L0,352zM0,256L 512,256L 512,224L0,224zM0,128L 512,128L 512,96L0,96z"  />
<glyph unicode="&#xe05c;" d="M0,448L 512,448L 512,384L0,384zM0,352L 320,352L 320,288L0,288zM0,160L 320,160L 320,96L0,96zM0,256L 512,256L 512,192L0,192zM0,64L 512,64L 512,0L0,0z"  />
<glyph unicode="&#xe05d;" d="M0,448L 512,448L 512,384L0,384zM 96,352L 416,352L 416,288L 96,288zM 96,160L 416,160L 416,96L 96,96zM0,256L 512,256L 512,192L0,192zM0,64L 512,64L 512,0L0,0z"  />
<glyph unicode="&#xe05e;" d="M0,448L 512,448L 512,384L0,384zM 192,352L 512,352L 512,288L 192,288zM 192,160L 512,160L 512,96L 192,96zM0,256L 512,256L 512,192L0,192zM0,64L 512,64L 512,0L0,0z"  />
<glyph unicode="&#xe05f;" d="M0,448L 512,448L 512,384L0,384zM0,352L 512,352L 512,288L0,288zM0,256L 512,256L 512,192L0,192zM0,160L 512,160L 512,96L0,96zM0,64L 512,64L 512,0L0,0z"  />
<glyph unicode="&#xe060;" d="M0,448L 512,448L 512,384L0,384zM 192,352L 512,352L 512,288L 192,288zM 192,256L 512,256L 512,192L 192,192zM 192,160L 512,160L 512,96L 192,96zM0,64L 512,64L 512,0L0,0zM 0,128 L 0,320 L 128,224 Z"  />
<glyph unicode="&#xe061;" d="M0,448L 512,448L 512,384L0,384zM 192,352L 512,352L 512,288L 192,288zM 192,256L 512,256L 512,192L 192,192zM 192,160L 512,160L 512,96L 192,96zM0,64L 512,64L 512,0L0,0zM 128,320 L 128,128 L 0,224 Z"  />
<glyph unicode="&#xe062;" d="M0,448L 512,448L 512,384L0,384zM0,320L 320,320L 320,256L0,256zM0,64L 320,64L 320,0L0,0zM0,192L 512,192L 512,128L0,128z"  />
<glyph unicode="&#xe063;" d="M0,448L 512,448L 512,384L0,384zM 96,320L 416,320L 416,256L 96,256zM 96,64L 416,64L 416,0L 96,0zM0,192L 512,192L 512,128L0,128z"  />
<glyph unicode="&#xe064;" d="M0,448L 512,448L 512,384L0,384zM0,192L 512,192L 512,128L0,128zM0,320L 512,320L 512,256L0,256zM0,64L 512,64L 512,0L0,0z"  />
<glyph unicode="&#xe065;" d="M0,448L 512,448L 512,384L0,384zM 192,192L 512,192L 512,128L 192,128zM 192,320L 512,320L 512,256L 192,256zM0,64L 512,64L 512,0L0,0zM 0,128 L 0,320 L 128,224 Z"  />
<glyph unicode="&#xe066;" d="M0,448L 512,448L 512,384L0,384zM 192,192L 512,192L 512,128L 192,128zM 192,320L 512,320L 512,256L 192,256zM0,64L 512,64L 512,0L0,0zM 128,320 L 128,128 L 0,224 Z"  />
<glyph unicode="&#xe067;" d="M0,448L 512,448L 512,384L0,384zM 192,320L 512,320L 512,256L 192,256zM 192,64L 512,64L 512,0L 192,0zM0,192L 512,192L 512,128L0,128z"  />
<glyph unicode="&#xe068;" d="M 128,160c0,0, 29.412,96, 192,96l0-96 l 192,128L 320,416l0-96 C 192,320, 128,240.164, 128,160zM 352,96L 64,96 L 64,288 l 62.938,0 c 5.047,5.959, 10.456,11.667, 16.244,17.090c 21.982,20.595, 48.281,36.326, 78.057,46.91L0,352 l0-320 l 416,0 
		L 416,166.312 l-64-42.667L 352,96 z"  />
<glyph unicode="&#xe069;" d="M 352,192 L 416,256 L 416,0 L 32,0 L 32,384 L 288,384 L 224,320 L 96,320 L 96,64 L 352,64 ZM 480,448 L 480,272 L 414.628,337.372 L 237.255,160 L 192,160 L 192,205.256 L 369.372,382.628 L 304,448 Z"  />
<glyph unicode="&#xe06a;" d="M 96,448l0-384 l 384,0 L 480,448 L 96,448 z M 448,96L 128,96 L 128,416 l 320,0 L 448,96 zM 64,32L 64,352L 32,384L 32,0L 416,0L 384,32 	zM 214.627,137.373L 310.627,233.373L 384,160L 384,352L 192,352L 265.373,278.627L 169.373,182.627 	z"  />
<glyph unicode="&#xe06b;" d="M 464,416L 176,416 c-26.4,0-48-21.6-48-48l0-48 L 48,320 c-26.4,0-48-21.6-48-48l0-192 c0-26.4, 21.6-48, 48-48l 288,0 c 26.4,0, 48,21.6, 48,48l0,48 l 80,0 
	c 26.4,0, 48,21.6, 48,48L 512,368 C 512,394.4, 490.401,416, 464,416z M 352,80c0-8.673-7.327-16-16-16L 48,64 c-8.673,0-16,7.327-16,16L 32,272 
	c0,8.673, 7.327,16, 16,16l 80,0 l0-112 c0-26.4, 21.6-48, 48-48l 176,0 L 352,80 z M 480,176c0-8.673-7.327-16-16-16L 176,160 c-8.673,0-16,7.327-16,16L 160,368 
	c0,8.673, 7.327,16, 16,16l 288,0 c 8.673,0, 16-7.327, 16-16L 480,176 z"  />
<glyph unicode="&#xe06c;" d="M 144,352L 16,224l 128-128l 64,0 L 80,224l 128,128L 144,352 z M 368,352l-64,0 l 128-128L 304,96l 64,0 l 128,128L 368,352z"  />
<glyph unicode="&#xe06d;" d="M 64,224L 192,352L 128,352L0,224L 128,96L 192,96 	zM 384,352L 320,352L 448,224L 320,96L 384,96L 512,224 	zM 272,416L 192,32L 240,32L 320,416 	z"  />
<glyph unicode="&#xe06e;" d="M0,448l0-448 l 512,0 L 512,448 L0,448 z M 480,32L 32,32 L 32,416 l 448,0 L 480,32 zM 448,384L 64,384 l0-320 l 384,0 L 448,384 z M 224,224l-32,0 l0-32 l-32,0 l0-32 l-32,0 l0,32 l 32,0 l0,32 l 32,0 l0,32 l-32,0 l0,32 l-32,0 l0,32 l 32,0 l0-32 l 32,0 l0-32 l 32,0 L 224,224 z M 352,160l-96,0 
		l0,32 l 96,0 L 352,160 z"  />
<glyph unicode="&#xe06f;" d="M0,384L 512,384L 512,352L0,352zM 160,320L 512,320L 512,288L 160,288zM0,256L 512,256L 512,224L0,224zM 160,192L 512,192L 512,160L 160,160zM0,128L 512,128L 512,96L0,96zM 160,64L 512,64L 512,32L 160,32z"  />
<glyph unicode="&#xe070;" d="M0,384L 512,384L 512,352L0,352zM 96,320L 416,320L 416,288L 96,288zM 96,192L 416,192L 416,160L 96,160zM 96,64L 416,64L 416,32L 96,32zM0,256L 512,256L 512,224L0,224zM0,128L 512,128L 512,96L0,96z"  />
<glyph unicode="&#xe071;" d="M0,384L 512,384L 512,352L0,352zM0,320L 352,320L 352,288L0,288zM0,256L 512,256L 512,224L0,224zM0,192L 352,192L 352,160L0,160zM0,128L 512,128L 512,96L0,96zM0,64L 352,64L 352,32L0,32z"  />
<glyph unicode="&#xe072;" d="M 128,480C 57.308,480,0,422.692,0,352s 57.308-128, 128-128l0-256 l 64,0 L 192,416 l 64,0 l0-448 l 64,0 L 320,416 l 64,0 L 384,480 L 128,480 zM 512,384L 384,256L 512,128 	z"  />
<glyph unicode="&#xe073;" d="M 256,480c-70.692,0-128-57.308-128-128s 57.308-128, 128-128l0-256 l 64,0 L 320,416 l 64,0 l0-448 l 64,0 L 448,416 l 64,0 L 512,480 L 256,480 zM0,128L 128,256L0,384 	z"  />
<glyph unicode="&#xe074;" d="M 192,480 L 448,480 L 448,416 L 384,416 L 384-32 L 320-32 L 320,416 L 256,416 L 256-32 L 192-32 L 192,224 C 121.308,224 64,281.308 64,352 C 64,422.692 121.308,480 192,480 Z"  />
<glyph unicode="&#xe075;" d="M 192,384L 256,384L 256,352L 192,352zM 288,384L 352,384L 352,352L 288,352zM 448,384 L 448,256 L 352,256 L 352,288 L 416,288 L 416,352 L 384,352 L 384,384 ZM 160,288L 224,288L 224,256L 160,256zM 256,288L 320,288L 320,256L 256,256zM 96,352 L 96,288 L 128,288 L 128,256 L 64,256 L 64,384 L 160,384 L 160,352 ZM 192,192L 256,192L 256,160L 192,160zM 288,192L 352,192L 352,160L 288,160zM 448,192 L 448,64 L 352,64 L 352,96 L 416,96 L 416,160 L 384,160 L 384,192 ZM 160,96L 224,96L 224,64L 160,64zM 256,96L 320,96L 320,64L 256,64zM 96,160 L 96,96 L 128,96 L 128,64 L 64,64 L 64,192 L 160,192 L 160,160 ZM 480,448 L 32,448 L 32,0 L 480,0 L 480,448 Z M 512,480 L 512,480 L 512-32 L 0-32 L 0,480 L 512,480 Z"  />
<glyph unicode="&#xe076;" d="M0,448l0-448 l 512,0 L 512,448 L0,448 z M 192,160l0,96 l 128,0 l0-96 L 192,160 z M 320,128l0-96 L 192,32 l0,96 L 320,128 z M 320,384l0-96 L 192,288 L 192,384 L 320,384 z M 160,384l0-96 L 32,288 L 32,384 L 160,384 z
	 M 32,256l 128,0 l0-96 L 32,160 L 32,256 z M 352,256l 128,0 l0-96 L 352,160 L 352,256 z M 352,288L 352,384 l 128,0 l0-96 L 352,288 z M 32,128l 128,0 l0-96 L 32,32 L 32,128 z M 352,32l0,96 l 128,0 l0-96 L 352,32 z"  />
<glyph unicode="&#xe077;" d="M0,384l0-352 l 512,0 L 512,384 L0,384 z M 192,160l0,64 l 128,0 l0-64 L 192,160 z M 320,128l0-64 L 192,64 l0,64 L 320,128 z M 320,320l0-64 L 192,256 l0,64 L 320,320 z M 160,320l0-64 L 32,256 l0,64 L 160,320 z
	 M 32,224l 128,0 l0-64 L 32,160 L 32,224 z M 352,224l 128,0 l0-64 L 352,160 L 352,224 z M 352,256l0,64 l 128,0 l0-64 L 352,256 z M 32,128l 128,0 l0-64 L 32,64 L 32,128 z M 352,64l0,64 l 128,0 l0-64 L 352,64 z"  />
<glyph unicode="&#xe078;" d="M 148.95,480l-8.601-16.636c-2.967-5.739-3.436-15.441, 3.916-44.132c 4.646-18.127, 12.079-42.257, 22.094-71.721
		c 12.645-37.202, 27.779-78.103, 41.266-113.162l 30.575,62.683L 148.95,480zM 445.758,44.304l-1.535,17.522l-1.179-0.564c-6.377,24.955-23.095,49.090-48.090,69.052
		c-25.345,20.24-55.312,32.814-78.206,32.814c-4.53,0-8.712-0.494-12.518-1.472l-15.711,32.209
		c 16.149,40.417, 39.153,100.779, 57.123,153.646c 10.014,29.463, 17.447,53.594, 22.093,71.72c 7.353,28.691, 6.882,38.393, 3.915,44.132
		l-8.602,16.635L 256.002,260.535l0,0.001l-32.52-66.671l0,0l-15.711-32.209c-3.806,0.978-7.989,1.472-12.519,1.472
		c-22.894,0-52.86-12.574-78.204-32.812C 87.812,106.968, 69.9,77.914, 66.614,48.51l-0.372-4.206
		c-2.601-36.446, 13.639-66.34, 40.411-74.386c 4.235-1.272, 9.070-1.918, 14.373-1.918c 27.206,0, 61.183,16.609, 75.808,53.703
		c 2.033,4.838, 4.27,10.708, 6.856,17.499c 8.286,21.751, 20.809,54.623, 33.895,68.239c 4.789,4.981, 8.493,8.596, 11.468,11.5
		c 2.675,2.61, 4.923,4.804, 6.948,7.022c 2.025-2.218, 4.273-4.411, 6.946-7.019c 2.978-2.905, 6.683-6.52, 11.473-11.504
		c 13.086-13.614, 25.606-46.481, 33.892-68.23c 2.588-6.795, 4.825-12.669, 6.859-17.509c 14.623-37.094, 48.601-53.701, 75.809-53.702
		c 0.001,0, 0.002,0, 0.002,0c 5.302,0, 10.138,0.646, 14.373,1.918C 432.123-22.034, 448.36,7.858, 445.758,44.304z M 165.027,39.051
		c-18.821-34.352-35.635-39.49-43.991-39.49c-11.377,0-19.895,9.239-21.556,18.169c-1.095,5.884-1.293,11.923-0.589,17.953
		c 2.818,24.164, 19.215,44.907, 32.475,58.052c 18.219,18.064, 38.649,30.061, 51.764,35.301c 1.308,0.457, 2.109,0.525, 2.476,0.525
		c 0.194,0, 0.3-0.018, 0.32-0.018c 0.003,0, 0.004,0, 0.004,0.001C 189.791,126.995, 194.339,97.988, 165.027,39.051z M 412.795,17.729
		c-1.674-8.931-10.244-18.169-21.691-18.169c-8.408,0-25.327,5.139-44.263,39.491c-29.499,58.958-24.904,87.982-21.062,90.478
		c 0.001,0, 0.101,0.031, 0.355,0.031c 0.368,0, 1.176-0.069, 2.489-0.526c 13.196-5.238, 33.751-17.234, 52.085-35.3
		c 13.34-13.146, 29.841-33.888, 32.678-58.044C 414.091,29.644, 413.892,23.601, 412.795,17.729z"  />
<glyph unicode="&#xe079;" d="M 390.979-32c-27.208,0.001-61.186,16.608-75.809,53.702c-2.034,4.84-4.271,10.714-6.859,17.509
	c-8.285,21.749-20.806,54.616-33.892,68.23c-4.79,4.984-8.495,8.599-11.473,11.504c-2.673,2.607-4.921,4.801-6.946,7.019
	c-2.025-2.219-4.273-4.412-6.948-7.022c-2.976-2.904-6.68-6.519-11.468-11.5c-13.086-13.616-25.608-46.488-33.895-68.239
	c-2.586-6.791-4.823-12.661-6.856-17.499C 182.208-15.391, 148.231-32, 121.025-32c-5.303,0-10.138,0.646-14.373,1.918
	c-26.772,8.046-43.012,37.939-40.411,74.386l 0.372,4.206c 3.287,29.404, 21.199,58.458, 50.435,81.806
	c 25.344,20.238, 55.31,32.812, 78.204,32.812c 4.53,0, 8.712-0.494, 12.519-1.472l 15.711,32.209
	c-16.148,40.414-39.152,100.774-57.123,153.646c-10.015,29.463-17.448,53.594-22.094,71.721
	c-7.352,28.691-6.883,38.393-3.916,44.132L 148.95,480l 107.053-219.465L 363.049,479.999l 8.602-16.635
	c 2.967-5.739, 3.438-15.441-3.915-44.132c-4.646-18.126-12.079-42.257-22.093-71.72c-17.97-52.868-40.974-113.229-57.123-153.646
	l 15.711-32.209c 3.806,0.978, 7.987,1.472, 12.518,1.472c 22.895,0, 52.861-12.574, 78.206-32.814
	c 24.995-19.962, 41.713-44.097, 48.090-69.052l 1.179,0.564l 1.535-17.522c 2.603-36.445-13.635-66.338-40.404-74.386
	c-4.235-1.272-9.071-1.918-14.373-1.918C 390.98-32, 390.979-32, 390.979-32z M 346.841,39.052
	c 18.936-34.353, 35.854-39.491, 44.263-39.491c 11.447,0, 20.018,9.238, 21.691,18.169c 1.097,5.871, 1.296,11.914, 0.592,17.961
	c-2.837,24.156-19.338,44.898-32.678,58.044c-18.334,18.065-38.889,30.062-52.085,35.3c-1.313,0.457-2.121,0.526-2.489,0.526
	c-0.255,0-0.354-0.031-0.355-0.031C 321.937,127.034, 317.342,98.010, 346.841,39.052z M 183.13,129.035
	c-13.115-5.24-33.545-17.236-51.764-35.301c-13.26-13.145-29.656-33.888-32.475-58.052c-0.704-6.030-0.506-12.069, 0.589-17.953
	c 1.661-8.93, 10.179-18.169, 21.556-18.169c 8.356,0, 25.17,5.139, 43.991,39.49c 29.312,58.938, 24.764,87.944, 20.903,90.493
	c0-0.001-0.001-0.001-0.004-0.001c-0.020,0-0.125,0.018-0.32,0.018C 185.239,129.561, 184.438,129.492, 183.13,129.035z"  />
</font>
</defs>
</svg>
